  0
SECTION
  2
HEADER
  9
$ACADVER
  1
AC1015
  9
$ACADMAINTVER
 70
     6
  9
$DWGCODEPAGE
  3
ANSI_1252
  9
$INSBASE
 10
0.0
 20
0.0
 30
0.0
  9
$EXTMIN
 10
-105.0000000000001
 20
0.0
 30
0.0
  9
$EXTMAX
 10
0.0
 20
148.5000000000001
 30
0.0
  9
$LIMMIN
 10
0.0
 20
0.0
  9
$LIMMAX
 10
12.0
 20
9.0
  9
$ORTHOMODE
 70
     0
  9
$REGENMODE
 70
     1
  9
$FILLMODE
 70
     1
  9
$QTEXTMODE
 70
     0
  9
$MIRRTEXT
 70
     1
  9
$LTSCALE
 40
1.0
  9
$ATTMODE
 70
     1
  9
$TEXTSIZE
 40
0.2
  9
$TRACEWID
 40
0.05
  9
$TEXTSTYLE
  7
Standard
  9
$CLAYER
  8
0
  9
$CELTYPE
  6
ByLayer
  9
$CECOLOR
 62
   256
  9
$CELTSCALE
 40
1.0
  9
$DISPSILH
 70
     0
  9
$DIMSCALE
 40
1.0
  9
$DIMASZ
 40
0.18
  9
$DIMEXO
 40
0.0625
  9
$DIMDLI
 40
0.38
  9
$DIMRND
 40
0.0
  9
$DIMDLE
 40
0.0
  9
$DIMEXE
 40
0.18
  9
$DIMTP
 40
0.0
  9
$DIMTM
 40
0.0
  9
$DIMTXT
 40
0.18
  9
$DIMCEN
 40
0.09
  9
$DIMTSZ
 40
0.0
  9
$DIMTOL
 70
     0
  9
$DIMLIM
 70
     0
  9
$DIMTIH
 70
     1
  9
$DIMTOH
 70
     1
  9
$DIMSE1
 70
     0
  9
$DIMSE2
 70
     0
  9
$DIMTAD
 70
     0
  9
$DIMZIN
 70
     0
  9
$DIMBLK
  1

  9
$DIMASO
 70
     1
  9
$DIMSHO
 70
     1
  9
$DIMPOST
  1

  9
$DIMAPOST
  1

  9
$DIMALT
 70
     0
  9
$DIMALTD
 70
     2
  9
$DIMALTF
 40
25.4
  9
$DIMLFAC
 40
1.0
  9
$DIMTOFL
 70
     0
  9
$DIMTVP
 40
0.0
  9
$DIMTIX
 70
     0
  9
$DIMSOXD
 70
     0
  9
$DIMSAH
 70
     0
  9
$DIMBLK1
  1

  9
$DIMBLK2
  1

  9
$DIMSTYLE
  2
Standard
  9
$DIMCLRD
 70
     0
  9
$DIMCLRE
 70
     0
  9
$DIMCLRT
 70
     0
  9
$DIMTFAC
 40
1.0
  9
$DIMGAP
 40
0.09
  9
$DIMJUST
 70
     0
  9
$DIMSD1
 70
     0
  9
$DIMSD2
 70
     0
  9
$DIMTOLJ
 70
     1
  9
$DIMTZIN
 70
     0
  9
$DIMALTZ
 70
     0
  9
$DIMALTTZ
 70
     0
  9
$DIMUPT
 70
     0
  9
$DIMDEC
 70
     4
  9
$DIMTDEC
 70
     4
  9
$DIMALTU
 70
     2
  9
$DIMALTTD
 70
     2
  9
$DIMTXSTY
  7
Standard
  9
$DIMAUNIT
 70
     0
  9
$DIMADEC
 70
     0
  9
$DIMALTRND
 40
0.0
  9
$DIMAZIN
 70
     0
  9
$DIMDSEP
 70
    46
  9
$DIMATFIT
 70
     3
  9
$DIMFRAC
 70
     0
  9
$DIMLDRBLK
  1

  9
$DIMLUNIT
 70
     2
  9
$DIMLWD
 70
    -2
  9
$DIMLWE
 70
    -2
  9
$DIMTMOVE
 70
     0
  9
$LUNITS
 70
     2
  9
$LUPREC
 70
     4
  9
$SKETCHINC
 40
0.1
  9
$FILLETRAD
 40
0.5
  9
$AUNITS
 70
     0
  9
$AUPREC
 70
     0
  9
$MENU
  1
.
  9
$ELEVATION
 40
0.0
  9
$PELEVATION
 40
0.0
  9
$THICKNESS
 40
0.0
  9
$LIMCHECK
 70
     0
  9
$CHAMFERA
 40
0.5
  9
$CHAMFERB
 40
0.5
  9
$CHAMFERC
 40
1.0
  9
$CHAMFERD
 40
0.0
  9
$SKPOLY
 70
     0
  9
$TDCREATE
 40
2456997.424394097
  9
$TDUCREATE
 40
2456997.382727431
  9
$TDUPDATE
 40
2456997.424394467
  9
$TDUUPDATE
 40
2456997.382727801
  9
$TDINDWG
 40
0.0000000116
  9
$TDUSRTIMER
 40
0.0000000116
  9
$USRTIMER
 70
     1
  9
$ANGBASE
 50
0.0
  9
$ANGDIR
 70
     0
  9
$PDMODE
 70
     0
  9
$PDSIZE
 40
0.0
  9
$PLINEWID
 40
0.0
  9
$SPLFRAME
 70
     0
  9
$SPLINETYPE
 70
     6
  9
$SPLINESEGS
 70
     8
  9
$HANDSEED
  5
35A
  9
$SURFTAB1
 70
     6
  9
$SURFTAB2
 70
     6
  9
$SURFTYPE
 70
     6
  9
$SURFU
 70
     6
  9
$SURFV
 70
     6
  9
$UCSBASE
  2

  9
$UCSNAME
  2

  9
$UCSORG
 10
0.0
 20
0.0
 30
0.0
  9
$UCSXDIR
 10
1.0
 20
0.0
 30
0.0
  9
$UCSYDIR
 10
0.0
 20
1.0
 30
0.0
  9
$UCSORTHOREF
  2

  9
$UCSORTHOVIEW
 70
     0
  9
$UCSORGTOP
 10
0.0
 20
0.0
 30
0.0
  9
$UCSORGBOTTOM
 10
0.0
 20
0.0
 30
0.0
  9
$UCSORGLEFT
 10
0.0
 20
0.0
 30
0.0
  9
$UCSORGRIGHT
 10
0.0
 20
0.0
 30
0.0
  9
$UCSORGFRONT
 10
0.0
 20
0.0
 30
0.0
  9
$UCSORGBACK
 10
0.0
 20
0.0
 30
0.0
  9
$PUCSBASE
  2

  9
$PUCSNAME
  2

  9
$PUCSORG
 10
0.0
 20
0.0
 30
0.0
  9
$PUCSXDIR
 10
1.0
 20
0.0
 30
0.0
  9
$PUCSYDIR
 10
0.0
 20
1.0
 30
0.0
  9
$PUCSORTHOREF
  2

  9
$PUCSORTHOVIEW
 70
     0
  9
$PUCSORGTOP
 10
0.0
 20
0.0
 30
0.0
  9
$PUCSORGBOTTOM
 10
0.0
 20
0.0
 30
0.0
  9
$PUCSORGLEFT
 10
0.0
 20
0.0
 30
0.0
  9
$PUCSORGRIGHT
 10
0.0
 20
0.0
 30
0.0
  9
$PUCSORGFRONT
 10
0.0
 20
0.0
 30
0.0
  9
$PUCSORGBACK
 10
0.0
 20
0.0
 30
0.0
  9
$USERI1
 70
     0
  9
$USERI2
 70
     0
  9
$USERI3
 70
     0
  9
$USERI4
 70
     0
  9
$USERI5
 70
     0
  9
$USERR1
 40
18.1
  9
$USERR2
 40
0.0
  9
$USERR3
 40
0.0
  9
$USERR4
 40
0.0
  9
$USERR5
 40
0.0
  9
$WORLDVIEW
 70
     1
  9
$SHADEDGE
 70
     3
  9
$SHADEDIF
 70
    70
  9
$TILEMODE
 70
     1
  9
$MAXACTVP
 70
    64
  9
$PINSBASE
 10
0.0
 20
0.0
 30
0.0
  9
$PLIMCHECK
 70
     0
  9
$PEXTMIN
 10
1.00000000000000E+20
 20
1.00000000000000E+20
 30
1.00000000000000E+20
  9
$PEXTMAX
 10
-1.00000000000000E+20
 20
-1.00000000000000E+20
 30
-1.00000000000000E+20
  9
$PLIMMIN
 10
0.0
 20
0.0
  9
$PLIMMAX
 10
12.0
 20
9.0
  9
$UNITMODE
 70
     0
  9
$VISRETAIN
 70
     1
  9
$PLINEGEN
 70
     0
  9
$PSLTSCALE
 70
     1
  9
$TREEDEPTH
 70
  3020
  9
$CMLSTYLE
  2
Standard
  9
$CMLJUST
 70
     0
  9
$CMLSCALE
 40
1.0
  9
$PROXYGRAPHICS
 70
     1
  9
$MEASUREMENT
 70
     1
  9
$CELWEIGHT
370
    -1
  9
$ENDCAPS
280
     0
  9
$JOINSTYLE
280
     0
  9
$LWDISPLAY
290
     0
  9
$INSUNITS
 70
     4
  9
$HYPERLINKBASE
  1

  9
$STYLESHEET
  1

  9
$XEDIT
290
     1
  9
$CEPSNTYPE
380
     0
  9
$PSTYLEMODE
290
     1
  9
$FINGERPRINTGUID
  2
{46E94064-FDBE-4838-A5AE-EA186A2F6AAF}
  9
$VERSIONGUID
  2
{FAEB1C32-E019-11D5-929B-00C0DF256EC4}
  9
$EXTNAMES
290
     1
  9
$PSVPSCALE
 40
0.0
  9
$OLESTARTUP
290
     0
  0
ENDSEC
  0
SECTION
  2
CLASSES
  0
CLASS
  1
ACDBDICTIONARYWDFLT
  2
AcDbDictionaryWithDefault
  3
ObjectDBX Classes
 90
        0
280
     0
281
     0
  0
CLASS
  1
VISUALSTYLE
  2
AcDbVisualStyle
  3
ObjectDBX Classes
 90
     4095
280
     0
281
     0
  0
CLASS
  1
MATERIAL
  2
AcDbMaterial
  3
ObjectDBX Classes
 90
     1153
280
     0
281
     0
  0
CLASS
  1
DICTIONARYVAR
  2
AcDbDictionaryVar
  3
ObjectDBX Classes
 90
        0
280
     0
281
     0
  0
CLASS
  1
ACDBPLACEHOLDER
  2
AcDbPlaceHolder
  3
ObjectDBX Classes
 90
        0
280
     0
281
     0
  0
CLASS
  1
LAYOUT
  2
AcDbLayout
  3
ObjectDBX Classes
 90
        0
280
     0
281
     0
  0
ENDSEC
  0
SECTION
  2
TABLES
  0
TABLE
  2
VPORT
  5
8
330
0
100
AcDbSymbolTable
 70
     1
  0
VPORT
  5
29
330
8
100
AcDbSymbolTableRecord
100
AcDbViewportTableRecord
  2
*Active
 70
     0
 10
0.0
 20
0.0
 11
1.0
 21
1.0
 12
-52.50000000000005
 22
74.25000000000006
 13
0.0
 23
0.0
 14
0.5
 24
0.5
 15
0.5
 25
0.5
 16
0.0
 26
0.0
 36
1.0
 17
0.0
 27
0.0
 37
0.0
 40
163.3500000000001
 41
1.60267857142857
 42
50.0
 43
0.0
 44
0.0
 50
0.0
 51
0.0
 71
     0
 72
   100
 73
     1
 74
     3
 75
     0
 76
     0
 77
     0
 78
     0
281
     0
 65
     1
110
0.0
120
0.0
130
0.0
111
1.0
121
0.0
131
0.0
112
0.0
122
1.0
132
0.0
 79
     0
146
0.0
  0
ENDTAB
  0
TABLE
  2
LTYPE
  5
5
330
0
100
AcDbSymbolTable
 70
     8
  0
LTYPE
  5
14
330
5
100
AcDbSymbolTableRecord
100
AcDbLinetypeTableRecord
  2
ByBlock
 70
     0
  3

 72
    65
 73
     0
 40
0.0
  0
LTYPE
  5
15
330
5
100
AcDbSymbolTableRecord
100
AcDbLinetypeTableRecord
  2
ByLayer
 70
     0
  3

 72
    65
 73
     0
 40
0.0
  0
LTYPE
  5
16
330
5
100
AcDbSymbolTableRecord
100
AcDbLinetypeTableRecord
  2
Continuous
 70
     0
  3
Solid line
 72
    65
 73
     0
 40
0.0
  0
LTYPE
  5
3F
330
5
100
AcDbSymbolTableRecord
100
AcDbLinetypeTableRecord
  2
DASHED
 70
     0
  3
Dashed
 72
    65
 73
     2
 40
15.0
 49
7.0
 74
     0
 49
-8.0
 74
     0
  0
LTYPE
  5
40
330
5
100
AcDbSymbolTableRecord
100
AcDbLinetypeTableRecord
  2
DOTTED
 70
     0
  3
Dotted
 72
    65
 73
     2
 40
1.0
 49
0.0
 74
     0
 49
-1.0
 74
     0
  0
LTYPE
  5
41
330
5
100
AcDbSymbolTableRecord
100
AcDbLinetypeTableRecord
  2
DOT_CENTER
 70
     0
  3
Dot_Center
 72
    65
 73
     4
 40
14.0
 49
12.0
 74
     0
 49
-1.0
 74
     0
 49
0.0
 74
     0
 49
-1.0
 74
     0
  0
LTYPE
  5
42
330
5
100
AcDbSymbolTableRecord
100
AcDbLinetypeTableRecord
  2
LONG_DASHED
 70
     0
  3
Long_Dashed
 72
    65
 73
     2
 40
15.0
 49
10.0
 74
     0
 49
-5.0
 74
     0
  0
LTYPE
  5
43
330
5
100
AcDbSymbolTableRecord
100
AcDbLinetypeTableRecord
  2
DASH_CENTER
 70
     0
  3
Dash_Center
 72
    65
 73
     4
 40
14.0
 49
11.0
 74
     0
 49
-1.0
 74
     0
 49
1.0
 74
     0
 49
-1.0
 74
     0
  0
LTYPE
  5
44
330
5
100
AcDbSymbolTableRecord
100
AcDbLinetypeTableRecord
  2
PHANTOM
 70
     0
  3
Phantom
 72
    65
 73
     6
 40
13.0
 49
10.0
 74
     0
 49
-1.0
 74
     0
 49
0.0
 74
     0
 49
-1.0
 74
     0
 49
0.0
 74
     0
 49
-1.0
 74
     0
  0
LTYPE
  5
45
330
5
100
AcDbSymbolTableRecord
100
AcDbLinetypeTableRecord
  2
CENTER_DASH_DASH
 70
     0
  3
Center_Dash_Dash
 72
    65
 73
     6
 40
14.0
 49
9.0
 74
     0
 49
-1.0
 74
     0
 49
1.0
 74
     0
 49
-1.0
 74
     0
 49
1.0
 74
     0
 49
-1.0
 74
     0
  0
ENDTAB
  0
TABLE
  2
LAYER
  5
2
330
0
100
AcDbSymbolTable
 70
     2
  0
LAYER
  5
10
330
2
100
AcDbSymbolTableRecord
100
AcDbLayerTableRecord
  2
0
 70
     0
 62
     7
  6
Continuous
370
    -3
390
F
  0
LAYER
  5
46
330
2
100
AcDbSymbolTableRecord
100
AcDbLayerTableRecord
  2
1
 70
     0
 62
     7
  6
Continuous
370
    -3
390
F
  0
ENDTAB
  0
TABLE
  2
STYLE
  5
3
330
0
100
AcDbSymbolTable
 70
     3
  0
STYLE
  5
11
330
3
100
AcDbSymbolTableRecord
100
AcDbTextStyleTableRecord
  2
Standard
 70
     0
 40
0.0
 41
1.0
 50
0.0
 71
     0
 42
0.2
  3
txt
  4

  0
STYLE
  5
2EB
330
3
100
AcDbSymbolTableRecord
100
AcDbTextStyleTableRecord
  2
CONVERTER_11
 70
     0
 40
0.0
 41
1.2
 50
0.0
 71
     0
 42
0.2
  3
ARIAL.TTF
  4

  0
STYLE
  5
2F3
330
3
100
AcDbSymbolTableRecord
100
AcDbTextStyleTableRecord
  2
CONVERTER_12
 70
     0
 40
0.0
 41
0.95
 50
0.0
 71
     0
 42
0.2
  3
simplex.shx
  4

  0
ENDTAB
  0
TABLE
  2
VIEW
  5
6
330
0
100
AcDbSymbolTable
 70
     0
  0
ENDTAB
  0
TABLE
  2
UCS
  5
7
330
0
100
AcDbSymbolTable
 70
     0
  0
ENDTAB
  0
TABLE
  2
APPID
  5
9
330
0
100
AcDbSymbolTable
 70
     1
  0
APPID
  5
12
330
9
100
AcDbSymbolTableRecord
100
AcDbRegAppTableRecord
  2
ACAD
 70
     0
  0
ENDTAB
  0
TABLE
  2
DIMSTYLE
  5
A
330
0
100
AcDbSymbolTable
 70
     4
100
AcDbDimStyleTable
  0
DIMSTYLE
105
27
330
A
100
AcDbSymbolTableRecord
100
AcDbDimStyleTableRecord
  2
Standard
 70
     0
178
     0
340
11
  0
DIMSTYLE
105
306
102
{ACAD_REACTORS
330
307
102
}
330
A
100
AcDbSymbolTableRecord
100
AcDbDimStyleTableRecord
  2
ME10_DIM_10
 70
     0
 41
1.5
 42
0.25
 44
0.5
 73
     0
 74
     0
 77
     1
 78
     8
140
1.5
147
1.0
172
     1
173
     1
174
     1
175
     1
176
     2
177
     2
271
     2
178
     4
271
     2
340
2F3
  0
DIMSTYLE
105
311
102
{ACAD_REACTORS
330
312
102
}
330
A
100
AcDbSymbolTableRecord
100
AcDbDimStyleTableRecord
  2
ME10_DIM_11
 70
     0
 41
1.5
 42
0.25
 44
0.5
 73
     0
 74
     0
 77
     1
 78
     8
140
1.5
147
1.0
172
     1
173
     1
174
     1
175
     1
176
     2
177
     2
271
     2
178
     4
271
     2
340
2F3
  0
DIMSTYLE
105
31C
102
{ACAD_REACTORS
330
31D
102
}
330
A
100
AcDbSymbolTableRecord
100
AcDbDimStyleTableRecord
  2
ME10_DIM_12
 70
     0
 41
1.5
 42
0.25
 44
0.5
 73
     0
 74
     0
 77
     1
 78
     8
140
1.5
147
1.0
172
     1
173
     1
174
     1
175
     1
176
     2
177
     2
271
     2
178
     4
271
     2
340
2F3
  0
ENDTAB
  0
TABLE
  2
BLOCK_RECORD
  5
1
330
0
100
AcDbSymbolTable
 70
     5
  0
BLOCK_RECORD
  5
1F
330
1
100
AcDbSymbolTableRecord
100
AcDbBlockTableRecord
  2
*Model_Space
340
22
  0
BLOCK_RECORD
  5
1B
330
1
100
AcDbSymbolTableRecord
100
AcDbBlockTableRecord
  2
*Paper_Space
340
1E
  0
BLOCK_RECORD
  5
23
330
1
100
AcDbSymbolTableRecord
100
AcDbBlockTableRecord
  2
*Paper_Space0
340
26
  0
BLOCK_RECORD
  5
47
330
1
100
AcDbSymbolTableRecord
100
AcDbBlockTableRecord
  2
FERMACONTATTI_04
340
0
102
{BLKREFS
331
4A
102
}
  0
BLOCK_RECORD
  5
2FD
330
1
100
AcDbSymbolTableRecord
100
AcDbBlockTableRecord
  2
*D2
340
0
  0
BLOCK_RECORD
  5
308
330
1
100
AcDbSymbolTableRecord
100
AcDbBlockTableRecord
  2
*D3
340
0
  0
BLOCK_RECORD
  5
313
330
1
100
AcDbSymbolTableRecord
100
AcDbBlockTableRecord
  2
*D4
340
0
  0
ENDTAB
  0
ENDSEC
  0
SECTION
  2
BLOCKS
  0
BLOCK
  5
20
330
1F
100
AcDbEntity
  8
0
100
AcDbBlockBegin
  2
*Model_Space
 70
     0
 10
0.0
 20
0.0
 30
0.0
  3
*Model_Space
  1

  0
ENDBLK
  5
21
330
1F
100
AcDbEntity
  8
0
100
AcDbBlockEnd
  0
BLOCK
  5
1C
330
1B
100
AcDbEntity
 67
     1
  8
0
100
AcDbBlockBegin
  2
*Paper_Space
 70
     0
 10
0.0
 20
0.0
 30
0.0
  3
*Paper_Space
  1

  0
ENDBLK
  5
1D
330
1B
100
AcDbEntity
 67
     1
  8
0
100
AcDbBlockEnd
  0
BLOCK
  5
24
330
23
100
AcDbEntity
  8
0
100
AcDbBlockBegin
  2
*Paper_Space0
 70
     0
 10
0.0
 20
0.0
 30
0.0
  3
*Paper_Space0
  1

  0
ENDBLK
  5
25
330
23
100
AcDbEntity
  8
0
100
AcDbBlockEnd
  0
BLOCK
  5
48
330
47
100
AcDbEntity
  8
0
100
AcDbBlockBegin
  2
FERMACONTATTI_04
 70
     0
 10
-74.53270952585274
 20
122.122940043274
 30
0.0
  3
FERMACONTATTI_04
  1

  0
LINE
  5
4B
330
47
100
AcDbEntity
  8
0
  6
Continuous
 62
     7
100
AcDbLine
 10
-73.03270952585274
 20
128.2229400432734
 30
0.0
 11
-73.03270952585274
 21
125.0229400432733
 31
0.0
  0
LINE
  5
4C
330
47
100
AcDbEntity
  8
0
  6
Continuous
 62
     7
100
AcDbLine
 10
-73.53270952585274
 20
125.122940043274
 30
0.0
 11
-73.53270952585274
 21
128.122940043274
 31
0.0
  0
LINE
  5
4D
330
47
100
AcDbEntity
  8
0
  6
Continuous
 62
     7
100
AcDbLine
 10
-74.53270952585274
 20
122.3729400432736
 30
0.0
 11
-74.53270952585274
 21
125.122940043274
 31
0.0
  0
LINE
  5
4E
330
47
100
AcDbEntity
  8
0
  6
Continuous
 62
     7
100
AcDbLine
 10
-74.53270952585274
 20
128.122940043274
 30
0.0
 11
-74.53270952585274
 21
130.8729400432736
 31
0.0
  0
LINE
  5
4F
330
47
100
AcDbEntity
  8
0
  6
Continuous
 62
     7
100
AcDbLine
 10
-74.53270952585274
 20
130.8729400432736
 30
0.0
 11
-74.53270952585274
 21
131.1229400432739
 31
0.0
  0
LINE
  5
50
330
47
100
AcDbEntity
  8
0
  6
Continuous
 62
     7
100
AcDbLine
 10
-74.53270952585274
 20
122.122940043274
 30
0.0
 11
-74.53270952585274
 21
122.3729400432736
 31
0.0
  0
LINE
  5
51
330
47
100
AcDbEntity
  8
0
  6
Continuous
 62
     7
100
AcDbLine
 10
-53.53270952585274
 20
122.122940043274
 30
0.0
 11
-53.53270952585274
 21
122.3729400432736
 31
0.0
  0
LINE
  5
52
330
47
100
AcDbEntity
  8
0
  6
Continuous
 62
     7
100
AcDbLine
 10
-53.53270952585274
 20
130.8729400432737
 30
0.0
 11
-53.53270952585274
 21
131.1229400432739
 31
0.0
  0
LINE
  5
53
330
47
100
AcDbEntity
  8
0
  6
Continuous
 62
     7
100
AcDbLine
 10
-55.03270952585274
 20
128.2229400432734
 30
0.0
 11
-55.03270952585274
 21
125.0229400432734
 31
0.0
  0
LINE
  5
54
330
47
100
AcDbEntity
  8
0
  6
Continuous
 62
     7
100
AcDbLine
 10
-53.53270952585274
 20
125.1229400432735
 30
0.0
 11
-53.53270952585274
 21
122.3729400432736
 31
0.0
  0
LINE
  5
55
330
47
100
AcDbEntity
  8
0
  6
Continuous
 62
     7
100
AcDbLine
 10
-53.53270952585274
 20
130.8729400432737
 30
0.0
 11
-53.53270952585274
 21
128.1229400432736
 31
0.0
  0
LINE
  5
56
330
47
100
AcDbEntity
  8
0
  6
Continuous
 62
     7
100
AcDbLine
 10
-54.53270952585274
 20
125.1229400432736
 30
0.0
 11
-54.53270952585274
 21
128.1229400432735
 31
0.0
  0
ENDBLK
  5
49
330
47
100
AcDbEntity
  8
0
100
AcDbBlockEnd
  0
BLOCK
  5
304
330
2FD
100
AcDbEntity
  8
0
100
AcDbBlockBegin
  2
*D2
 70
     1
 10
0.0
 20
0.0
 30
0.0
  3
*D2
  1

  0
LINE
  5
2FE
330
2FD
100
AcDbEntity
  8
1
  6
Continuous
 62
     2
100
AcDbLine
 10
-84.1418695499268
 20
94.49294004327406
 30
0.0
 11
-84.1418695499268
 21
62.9929400432738
 31
0.0
  0
LINE
  5
2FF
330
2FD
100
AcDbEntity
  8
1
  6
Continuous
 62
     2
100
AcDbLine
 10
-74.78270952585268
 20
94.49294004327406
 30
0.0
 11
-84.6418695499268
 21
94.49294004327406
 31
0.0
  0
LINE
  5
300
330
2FD
100
AcDbEntity
  8
1
  6
Continuous
 62
     2
100
AcDbLine
 10
-74.78270952585268
 20
62.9929400432738
 30
0.0
 11
-84.6418695499268
 21
62.9929400432738
 31
0.0
  0
SOLID
  5
301
330
2FD
100
AcDbEntity
  8
1
 62
     2
100
AcDbTrace
 10
-83.9443908035457
 20
92.99294004327406
 30
0.0
 11
-84.33934829630789
 21
92.99294004327406
 31
0.0
 12
-84.1418695499268
 22
94.49294004327406
 32
0.0
 13
-84.1418695499268
 23
94.49294004327406
 33
0.0
  0
SOLID
  5
302
330
2FD
100
AcDbEntity
  8
1
 62
     2
100
AcDbTrace
 10
-84.33934829630789
 20
64.4929400432738
 30
0.0
 11
-83.9443908035457
 21
64.4929400432738
 31
0.0
 12
-84.1418695499268
 22
62.9929400432738
 32
0.0
 13
-84.1418695499268
 23
62.9929400432738
 33
0.0
  0
MTEXT
  5
303
330
2FD
100
AcDbEntity
  8
1
 62
     4
100
AcDbMText
 10
-85.2918695499268
 20
76.90544004327393
 30
0.0
 40
1.5
 41
0.0
 71
     7
 72
     1
  1
31,5
  7
CONVERTER_12
 11
0.0
 21
1.0
 31
0.0
 73
     1
 44
0.60024009603842
  0
ENDBLK
  5
305
330
2FD
100
AcDbEntity
  8
0
100
AcDbBlockEnd
  0
BLOCK
  5
30F
330
308
100
AcDbEntity
  8
0
100
AcDbBlockBegin
  2
*D3
 70
     1
 10
0.0
 20
0.0
 30
0.0
  3
*D3
  1

  0
LINE
  5
309
330
308
100
AcDbEntity
  8
1
  6
Continuous
 62
     2
100
AcDbLine
 10
-74.53270952585268
 20
100.994807995181
 30
0.0
 11
-53.5327095258527
 21
100.994807995181
 31
0.0
  0
LINE
  5
30A
330
308
100
AcDbEntity
  8
1
  6
Continuous
 62
     2
100
AcDbLine
 10
-74.53270952585268
 20
94.74294004327406
 30
0.0
 11
-74.53270952585268
 21
101.494807995181
 31
0.0
  0
LINE
  5
30B
330
308
100
AcDbEntity
  8
1
  6
Continuous
 62
     2
100
AcDbLine
 10
-53.5327095258527
 20
94.7429400432737
 30
0.0
 11
-53.5327095258527
 21
101.494807995181
 31
0.0
  0
SOLID
  5
30C
330
308
100
AcDbEntity
  8
1
 62
     2
100
AcDbTrace
 10
-73.03270952585268
 20
101.1922867415621
 30
0.0
 11
-73.03270952585268
 21
100.7973292487999
 31
0.0
 12
-74.53270952585268
 22
100.994807995181
 32
0.0
 13
-74.53270952585268
 23
100.994807995181
 33
0.0
  0
SOLID
  5
30D
330
308
100
AcDbEntity
  8
1
 62
     2
100
AcDbTrace
 10
-55.0327095258527
 20
100.7973292487999
 30
0.0
 11
-55.0327095258527
 21
101.1922867415621
 31
0.0
 12
-53.5327095258527
 22
100.994807995181
 32
0.0
 13
-53.5327095258527
 23
100.994807995181
 33
0.0
  0
MTEXT
  5
30E
330
308
100
AcDbEntity
  8
1
 62
     4
100
AcDbMText
 10
-64.93270952585269
 20
101.994807995181
 30
0.0
 40
1.5
 41
0.0
 71
     7
 72
     1
  1
21
  7
CONVERTER_12
 11
0.9999999999970619
 21
2.424068405545306E-6
 31
0.0
 73
     1
 44
0.60024009603842
  0
ENDBLK
  5
310
330
308
100
AcDbEntity
  8
0
100
AcDbBlockEnd
  0
BLOCK
  5
31A
330
313
100
AcDbEntity
  8
0
100
AcDbBlockBegin
  2
*D4
 70
     1
 10
0.0
 20
0.0
 30
0.0
  3
*D4
  1

  0
LINE
  5
314
330
313
100
AcDbEntity
  8
1
  6
Continuous
 62
     2
100
AcDbLine
 10
-33.88270952585285
 20
100.994807995181
 30
0.0
 11
-12.88270952585301
 21
100.994807995181
 31
0.0
  0
LINE
  5
315
330
313
100
AcDbEntity
  8
1
  6
Continuous
 62
     2
100
AcDbLine
 10
-33.88270952585285
 20
94.74294004327363
 30
0.0
 11
-33.88270952585285
 21
101.494807995181
 31
0.0
  0
LINE
  5
316
330
313
100
AcDbEntity
  8
1
  6
Continuous
 62
     2
100
AcDbLine
 10
-12.88270952585301
 20
94.742940043274
 30
0.0
 11
-12.88270952585301
 21
101.494807995181
 31
0.0
  0
SOLID
  5
317
330
313
100
AcDbEntity
  8
1
 62
     2
100
AcDbTrace
 10
-32.38270952585285
 20
101.1922867415621
 30
0.0
 11
-32.38270952585285
 21
100.7973292487999
 31
0.0
 12
-33.88270952585285
 22
100.994807995181
 32
0.0
 13
-33.88270952585285
 23
100.994807995181
 33
0.0
  0
SOLID
  5
318
330
313
100
AcDbEntity
  8
1
 62
     2
100
AcDbTrace
 10
-14.38270952585301
 20
100.7973292487999
 30
0.0
 11
-14.38270952585301
 21
101.1922867415621
 31
0.0
 12
-12.88270952585301
 22
100.994807995181
 32
0.0
 13
-12.88270952585301
 23
100.994807995181
 33
0.0
  0
MTEXT
  5
319
330
313
100
AcDbEntity
  8
1
 62
     4
100
AcDbMText
 10
-24.28270952585293
 20
101.994807995181
 30
0.0
 40
1.5
 41
0.0
 71
     7
 72
     1
  1
21
  7
CONVERTER_12
 11
0.9999999999970619
 21
2.424068405545306E-6
 31
0.0
 73
     1
 44
0.60024009603842
  0
ENDBLK
  5
31B
330
313
100
AcDbEntity
  8
0
100
AcDbBlockEnd
  0
ENDSEC
  0
SECTION
  2
ENTITIES
  0
INSERT
  5
4A
330
1F
100
AcDbEntity
  8
0
100
AcDbBlockReference
  2
FERMACONTATTI_04
 10
-74.53270952585274
 20
122.122940043274
 30
0.0
  0
LINE
  5
57
330
1F
100
AcDbEntity
  8
1
  6
Continuous
 62
     7
100
AcDbLine
 10
-12.88270952585241
 20
82.03496439228924
 30
0.0
 11
-12.28270952585213
 21
82.57709475043522
 31
0.0
  0
LINE
  5
58
330
1F
100
AcDbEntity
  8
1
  6
Continuous
 62
     7
100
AcDbLine
 10
-12.88270952585241
 20
81.65761354466694
 30
0.0
 11
-12.28270952585213
 21
82.09956226185116
 31
0.0
  0
LINE
  5
59
330
1F
100
AcDbEntity
  8
1
  6
Continuous
 62
     7
100
AcDbLine
 10
-12.88270952585241
 20
81.07947850481234
 30
0.0
 11
-12.28270952585213
 21
81.36794004327402
 31
0.0
  0
LINE
  5
5A
330
1F
100
AcDbEntity
  8
1
  6
Continuous
 62
     7
100
AcDbLine
 10
-12.88270952585241
 20
80.37029089089637
 30
0.0
 11
-12.28270952585213
 21
80.4704725318581
 31
0.0
  0
LINE
  5
5B
330
1F
100
AcDbEntity
  8
1
  6
Continuous
 62
     7
100
AcDbLine
 10
-12.88270952585241
 20
79.61558919565167
 30
0.0
 11
-12.28270952585213
 21
79.51540755468993
 31
0.0
  0
LINE
  5
5C
330
1F
100
AcDbEntity
  8
1
  6
Continuous
 62
     7
100
AcDbLine
 10
-12.88270952585241
 20
78.90640158173568
 30
0.0
 11
-12.28270952585213
 21
78.61794004327402
 31
0.0
  0
LINE
  5
5D
330
1F
100
AcDbEntity
  8
1
  6
Continuous
 62
     7
100
AcDbLine
 10
-12.88270952585241
 20
78.32826654188102
 30
0.0
 11
-12.28270952585216
 21
77.8863178246968
 31
0.0
  0
LINE
  5
5E
330
1F
100
AcDbEntity
  8
1
  6
Continuous
 62
     7
100
AcDbLine
 10
-12.88270952585241
 20
77.95091569425871
 30
0.0
 11
-12.28270952585213
 21
77.40878533611273
 31
0.0
  0
LINE
  5
5F
330
1F
100
AcDbEntity
  8
1
  6
Continuous
 62
     7
100
AcDbLine
 10
-12.88270952585241
 20
77.79294004327426
 30
0.0
 11
-12.28270952585213
 21
77.19294004327399
 31
0.0
  0
LINE
  5
60
330
1F
100
AcDbEntity
  8
1
  6
Continuous
 62
     7
100
AcDbLine
 10
-12.28270952585213
 20
82.79294004327396
 30
0.0
 11
-12.88270952585241
 21
82.19294004327371
 31
0.0
  0
LINE
  5
61
330
1F
100
AcDbEntity
  8
1
  6
Continuous
 62
     7
100
AcDbLine
 10
-11.93270952585199
 20
82.79294004327396
 30
0.0
 11
-12.28270952585213
 21
82.79294004327396
 31
0.0
  0
LINE
  5
62
330
1F
100
AcDbEntity
  8
1
  6
Continuous
 62
     7
100
AcDbLine
 10
-12.28270952585213
 20
77.19294004327399
 30
0.0
 11
-11.93270952585208
 21
77.19294004327399
 31
0.0
  0
LINE
  5
63
330
1F
100
AcDbEntity
  8
1
  6
Continuous
 62
     7
100
AcDbLine
 10
-12.28270952585213
 20
82.79294004327396
 30
0.0
 11
-12.28270952585213
 21
77.19294004327399
 31
0.0
  0
LINE
  5
64
330
1F
100
AcDbEntity
  8
1
  6
Continuous
 62
     7
100
AcDbLine
 10
-11.42847095873474
 20
78.35191945499152
 30
0.0
 11
-11.93270952585211
 21
78.35191945499152
 31
0.0
  0
LINE
  5
65
330
1F
100
AcDbEntity
  8
1
  6
Continuous
 62
     7
100
AcDbLine
 10
-11.93270952585211
 20
78.35191945499152
 30
0.0
 11
-11.93270952585211
 21
77.78623403004225
 31
0.0
  0
LINE
  5
66
330
1F
100
AcDbEntity
  8
1
  6
Continuous
 62
     7
100
AcDbLine
 10
-11.93270952585211
 20
77.78623403004225
 30
0.0
 11
-11.63567557822685
 21
77.78623403004225
 31
0.0
  0
LINE
  5
67
102
{ACAD_REACTORS
330
320
102
}
330
1F
100
AcDbEntity
  8
1
  6
Continuous
 62
     2
100
AcDbLine
 10
-64.33270952585275
 20
35.6926483560006
 30
0.0
 11
-64.33270952585269
 21
35.17303311372989
 31
0.0
  0
LINE
  5
68
102
{ACAD_REACTORS
330
320
102
}
330
1F
100
AcDbEntity
  8
1
  6
Continuous
 62
     2
100
AcDbLine
 10
-64.33270952585269
 20
35.17303311372989
 30
0.0
 11
-64.07601079604188
 21
35.61764835600059
 31
0.0
  0
LINE
  5
69
102
{ACAD_REACTORS
330
320
102
}
330
1F
100
AcDbEntity
  8
1
  6
Continuous
 62
     2
100
AcDbLine
 10
-63.98940825566348
 20
35.61764835600059
 30
0.0
 11
-63.73270952585273
 21
35.17303311372989
 31
0.0
  0
LINE
  5
6A
102
{ACAD_REACTORS
330
320
102
}
330
1F
100
AcDbEntity
  8
1
  6
Continuous
 62
     2
100
AcDbLine
 10
-63.73270952585273
 20
35.17303311372989
 30
0.0
 11
-63.73270952585273
 21
35.6926483560006
 31
0.0
  0
LINE
  5
6B
330
1F
100
AcDbEntity
  8
1
  6
Continuous
 62
     2
100
AcDbLine
 10
-61.50777894331026
 20
35.64933907669815
 30
0.0
 11
-64.03270952585268
 21
34.1926483560006
 31
0.0
  0
LINE
  5
6C
330
1F
100
AcDbEntity
  8
1
  6
Continuous
 62
     2
100
AcDbLine
 10
-64.03270952585268
 20
34.1926483560006
 30
0.0
 11
-66.55764010839522
 21
35.64933907669815
 31
0.0
  0
LINE
  5
6D
330
1F
100
AcDbEntity
  8
1
  6
Continuous
 62
     2
100
AcDbLine
 10
-66.55764010839522
 20
35.735957635303
 30
0.0
 11
-64.03270952585268
 21
37.1926483560006
 31
0.0
  0
LINE
  5
6E
330
1F
100
AcDbEntity
  8
1
  6
Continuous
 62
     2
100
AcDbLine
 10
-64.03270952585268
 20
37.1926483560006
 30
0.0
 11
-61.50777894331026
 21
35.735957635303
 31
0.0
  0
LINE
  5
6F
102
{ACAD_REACTORS
330
320
102
}
330
1F
100
AcDbEntity
  8
1
  6
Continuous
 62
     2
100
AcDbLine
 10
-63.53270952585268
 20
35.6926483560006
 30
0.0
 11
-63.53270952585268
 21
34.7232831623902
 31
0.0
  0
LINE
  5
70
102
{ACAD_REACTORS
330
320
102
}
330
1F
100
AcDbEntity
  8
1
  6
Continuous
 62
     2
100
AcDbLine
 10
-63.68103963093978
 20
34.6835382305189
 30
0.0
 11
-64.03270952585268
 21
35.29264835600059
 31
0.0
  0
LINE
  5
71
102
{ACAD_REACTORS
330
320
102
}
330
1F
100
AcDbEntity
  8
1
  6
Continuous
 62
     2
100
AcDbLine
 10
-63.53270952585268
 20
35.6926483560006
 30
0.0
 11
-63.53270952585268
 21
36.1883728342107
 31
0.0
  0
LINE
  5
72
102
{ACAD_REACTORS
330
320
102
}
330
1F
100
AcDbEntity
  8
1
  6
Continuous
 62
     2
100
AcDbLine
 10
-63.73270952585273
 20
36.1883728342107
 30
0.0
 11
-63.73270952585273
 21
35.6926483560006
 31
0.0
  0
LINE
  5
73
102
{ACAD_REACTORS
330
320
102
}
330
1F
100
AcDbEntity
  8
1
  6
Continuous
 62
     2
100
AcDbLine
 10
-64.33270952585275
 20
35.6926483560006
 30
0.0
 11
-64.33270952585269
 21
36.65016763482004
 31
0.0
  0
LINE
  5
74
102
{ACAD_REACTORS
330
320
102
}
330
1F
100
AcDbEntity
  8
1
  6
Continuous
 62
     2
100
AcDbLine
 10
-64.53270952585268
 20
36.65016763482004
 30
0.0
 11
-64.53270952585268
 21
34.7232831623902
 31
0.0
  0
LINE
  5
75
102
{ACAD_REACTORS
330
320
102
}
330
1F
100
AcDbEntity
  8
1
  6
Continuous
 62
     2
100
AcDbLine
 10
-64.3843794207657
 20
34.6835382305189
 30
0.0
 11
-64.03270952585268
 21
35.29264835600059
 31
0.0
  0
LINE
  5
76
102
{ACAD_REACTORS
330
31F
102
}
330
1F
100
AcDbEntity
  8
1
  6
Continuous
 62
     2
100
AcDbLine
 10
-63.13270952585276
 20
36.3616420115908
 30
0.0
 11
-63.13270952585276
 21
34.96589830795035
 31
0.0
  0
LINE
  5
77
102
{ACAD_REACTORS
330
31F
102
}
330
1F
100
AcDbEntity
  8
1
  6
Continuous
 62
     2
100
AcDbLine
 10
-63.33270952585269
 20
34.96589830795035
 30
0.0
 11
-63.33270952585269
 21
36.3616420115908
 31
0.0
  0
LINE
  5
78
102
{ACAD_REACTORS
330
31F
102
}
330
1F
100
AcDbEntity
  8
1
  6
Continuous
 62
     2
100
AcDbLine
 10
-63.33270952585269
 20
36.3616420115908
 30
0.0
 11
-63.98268177120173
 21
36.73662599929209
 31
0.0
  0
LINE
  5
79
102
{ACAD_REACTORS
330
31F
102
}
330
1F
100
AcDbEntity
  8
1
  6
Continuous
 62
     2
100
AcDbLine
 10
-63.88273728050376
 20
36.90986311650185
 30
0.0
 11
-63.23276503515484
 21
36.53487912880049
 31
0.0
  0
LINE
  5
7A
102
{ACAD_REACTORS
330
31E
102
}
330
1F
100
AcDbEntity
  8
1
  6
Continuous
 62
     2
100
AcDbLine
 10
-62.93270952585277
 20
35.19666753871955
 30
0.0
 11
-62.93270952585277
 21
36.13087278082154
 31
0.0
  0
LINE
  5
7B
102
{ACAD_REACTORS
330
31E
102
}
330
1F
100
AcDbEntity
  8
1
  6
Continuous
 62
     2
100
AcDbLine
 10
-62.93270952585277
 20
36.13087278082154
 30
0.0
 11
-62.93270952585277
 21
36.18862917328159
 31
0.0
  0
LINE
  5
7C
102
{ACAD_REACTORS
330
31E
102
}
330
1F
100
AcDbEntity
  8
1
  6
Continuous
 62
     2
100
AcDbLine
 10
-62.73270952585273
 20
36.18862917328159
 30
0.0
 11
-62.73270952585273
 21
35.19666753871955
 31
0.0
  0
LINE
  5
7D
102
{ACAD_REACTORS
330
321
102
}
330
1F
100
AcDbEntity
  8
1
  6
Continuous
 62
     2
100
AcDbLine
 10
-64.88268177120165
 20
34.87927974934549
 30
0.0
 11
-65.28268177120168
 21
35.11004898011469
 31
0.0
  0
LINE
  5
7E
102
{ACAD_REACTORS
330
321
102
}
330
1F
100
AcDbEntity
  8
1
  6
Continuous
 62
     2
100
AcDbLine
 10
-65.18273728050389
 20
35.28328609732444
 30
0.0
 11
-64.93270952585277
 21
35.139039315795
 31
0.0
  0
LINE
  5
7F
102
{ACAD_REACTORS
330
321
102
}
330
1F
100
AcDbEntity
  8
1
  6
Continuous
 62
     2
100
AcDbLine
 10
-64.93270952585277
 20
35.139039315795
 30
0.0
 11
-64.93270952585277
 21
35.5926483560006
 31
0.0
  0
LINE
  5
80
102
{ACAD_REACTORS
330
321
102
}
330
1F
100
AcDbEntity
  8
1
  6
Continuous
 62
     2
100
AcDbLine
 10
-64.93270952585277
 20
35.5926483560006
 30
0.0
 11
-65.23270952585273
 21
35.5926483560006
 31
0.0
  0
LINE
  5
81
102
{ACAD_REACTORS
330
321
102
}
330
1F
100
AcDbEntity
  8
1
  6
Continuous
 62
     2
100
AcDbLine
 10
-65.23270952585273
 20
35.79264835600059
 30
0.0
 11
-64.93270952585277
 21
35.79264835600059
 31
0.0
  0
LINE
  5
82
102
{ACAD_REACTORS
330
321
102
}
330
1F
100
AcDbEntity
  8
1
  6
Continuous
 62
     2
100
AcDbLine
 10
-64.93270952585277
 20
35.79264835600059
 30
0.0
 11
-64.93270952585277
 21
36.24625739620615
 31
0.0
  0
LINE
  5
83
102
{ACAD_REACTORS
330
321
102
}
330
1F
100
AcDbEntity
  8
1
  6
Continuous
 62
     2
100
AcDbLine
 10
-64.93270952585277
 20
36.24625739620615
 30
0.0
 11
-65.18273728050389
 21
36.10201061467669
 31
0.0
  0
LINE
  5
84
102
{ACAD_REACTORS
330
321
102
}
330
1F
100
AcDbEntity
  8
1
  6
Continuous
 62
     2
100
AcDbLine
 10
-65.28268177120168
 20
36.27524773188645
 30
0.0
 11
-64.88268177120165
 21
36.50601696265564
 31
0.0
  0
LINE
  5
85
102
{ACAD_REACTORS
330
321
102
}
330
1F
100
AcDbEntity
  8
1
  6
Continuous
 62
     2
100
AcDbLine
 10
-64.73270952585273
 20
36.4193984040508
 30
0.0
 11
-64.73270952585273
 21
34.96589830795035
 31
0.0
  0
LINE
  5
86
330
1F
100
AcDbEntity
  8
0
  6
Continuous
 62
     7
100
AcDbLine
 10
-62.43270952585266
 20
38.4729400432738
 30
0.0
 11
-62.43270952585266
 21
41.67294004327369
 31
0.0
  0
LINE
  5
87
330
1F
100
AcDbEntity
  8
0
  6
Continuous
 62
     7
100
AcDbLine
 10
-62.53270952585268
 20
41.7729400432737
 30
0.0
 11
-65.53270952585268
 21
41.7729400432737
 31
0.0
  0
LINE
  5
88
330
1F
100
AcDbEntity
  8
0
  6
Continuous
 62
     7
100
AcDbLine
 10
-65.53270952585268
 20
41.0729400432737
 30
0.0
 11
-62.53270952585268
 21
41.0729400432737
 31
0.0
  0
LINE
  5
89
330
1F
100
AcDbEntity
  8
0
  6
Continuous
 62
     7
100
AcDbLine
 10
-65.53270952585268
 20
38.37294004327379
 30
0.0
 11
-62.53270952585268
 21
38.37294004327379
 31
0.0
  0
LINE
  5
8A
330
1F
100
AcDbEntity
  8
0
  6
Continuous
 62
     7
100
AcDbLine
 10
-65.6327095258527
 20
41.67294004327369
 30
0.0
 11
-65.6327095258527
 21
38.4729400432738
 31
0.0
  0
LINE
  5
8B
330
1F
100
AcDbEntity
  8
0
  6
Continuous
 62
     7
100
AcDbLine
 10
-65.6327095258527
 20
41.0729400432737
 30
0.0
 11
-65.53270952585268
 21
41.0729400432737
 31
0.0
  0
LINE
  5
8C
330
1F
100
AcDbEntity
  8
0
  6
Continuous
 62
     7
100
AcDbLine
 10
-62.53270952585268
 20
41.0729400432737
 30
0.0
 11
-62.43270952585266
 21
41.0729400432737
 31
0.0
  0
LINE
  5
8D
330
1F
100
AcDbEntity
  8
0
  6
Continuous
 62
     7
100
AcDbLine
 10
-67.6327095258527
 20
39.9729400432739
 30
0.0
 11
-67.6327095258527
 21
42.2729400432739
 31
0.0
  0
LINE
  5
8E
330
1F
100
AcDbEntity
  8
0
  6
Continuous
 62
     7
100
AcDbLine
 10
-70.43270952585266
 20
39.9729400432739
 30
0.0
 11
-70.43270952585266
 21
42.2729400432739
 31
0.0
  0
LINE
  5
8F
330
1F
100
AcDbEntity
  8
0
  6
Continuous
 62
     7
100
AcDbLine
 10
-70.43270952585266
 20
39.9729400432739
 30
0.0
 11
-67.6327095258527
 21
39.9729400432739
 31
0.0
  0
LINE
  5
90
330
1F
100
AcDbEntity
  8
0
  6
Continuous
 62
     7
100
AcDbLine
 10
-70.43270952585266
 20
42.2729400432739
 30
0.0
 11
-67.6327095258527
 21
42.2729400432739
 31
0.0
  0
LINE
  5
91
330
1F
100
AcDbEntity
  8
0
  6
Continuous
 62
     7
100
AcDbLine
 10
-70.53270952585268
 20
45.37294004327421
 30
0.0
 11
-70.6327095258527
 21
45.37294004327421
 31
0.0
  0
LINE
  5
92
330
1F
100
AcDbEntity
  8
0
  6
Continuous
 62
     7
100
AcDbLine
 10
-70.6327095258527
 20
47.87294004327389
 30
0.0
 11
-70.6327095258527
 21
44.77294004327421
 31
0.0
  0
LINE
  5
93
330
1F
100
AcDbEntity
  8
0
  6
Continuous
 62
     7
100
AcDbLine
 10
-70.53270952585268
 20
45.37294004327421
 30
0.0
 11
-67.53270952585268
 21
45.37294004327421
 31
0.0
  0
LINE
  5
94
330
1F
100
AcDbEntity
  8
0
  6
Continuous
 62
     7
100
AcDbLine
 10
-70.53270952585268
 20
47.9729400432738
 30
0.0
 11
-67.53270952585268
 21
47.9729400432738
 31
0.0
  0
LINE
  5
95
330
1F
100
AcDbEntity
  8
0
  6
Continuous
 62
     7
100
AcDbLine
 10
-67.43270952585266
 20
44.77294004327421
 30
0.0
 11
-67.43270952585283
 21
47.87294004327389
 31
0.0
  0
LINE
  5
96
330
1F
100
AcDbEntity
  8
0
  6
Continuous
 62
     7
100
AcDbLine
 10
-67.43270952585283
 20
45.37294004327421
 30
0.0
 11
-67.53270952585268
 21
45.37294004327421
 31
0.0
  0
LINE
  5
97
330
1F
100
AcDbEntity
  8
0
  6
Continuous
 62
     7
100
AcDbLine
 10
-70.53270952585268
 20
44.67294004327419
 30
0.0
 11
-67.53270952585268
 21
44.67294004327419
 31
0.0
  0
LINE
  5
98
330
1F
100
AcDbEntity
  8
0
  6
Continuous
 62
     7
100
AcDbLine
 10
-62.63270952585299
 20
46.47294004327289
 30
0.0
 11
-65.43270952585266
 21
46.4729400432738
 31
0.0
  0
LINE
  5
99
330
1F
100
AcDbEntity
  8
0
  6
Continuous
 62
     7
100
AcDbLine
 10
-62.63270952585481
 20
44.17294004327379
 30
0.0
 11
-65.43270952585033
 21
44.17294004327459
 31
0.0
  0
LINE
  5
9A
330
1F
100
AcDbEntity
  8
0
  6
Continuous
 62
     7
100
AcDbLine
 10
-62.63270952585481
 20
44.17294004327379
 30
0.0
 11
-62.63270952585299
 21
46.47294004327289
 31
0.0
  0
LINE
  5
9B
330
1F
100
AcDbEntity
  8
0
  6
Continuous
 62
     7
100
AcDbLine
 10
-65.43270952585033
 20
44.17294004327459
 30
0.0
 11
-65.43270952585266
 21
46.4729400432738
 31
0.0
  0
LINE
  5
9C
330
1F
100
AcDbEntity
  8
0
  6
Continuous
 62
     7
100
AcDbLine
 10
-60.53270952585268
 20
45.37294004327389
 30
0.0
 11
-57.53270952585268
 21
45.37294004327389
 31
0.0
  0
LINE
  5
9D
330
1F
100
AcDbEntity
  8
0
  6
Continuous
 62
     7
100
AcDbLine
 10
-60.53270952585268
 20
45.37294004327389
 30
0.0
 11
-60.6327095258527
 21
45.37294004327381
 31
0.0
  0
LINE
  5
9E
330
1F
100
AcDbEntity
  8
0
  6
Continuous
 62
     7
100
AcDbLine
 10
-60.6327095258527
 20
47.87294004327389
 30
0.0
 11
-60.6327095258527
 21
44.7729400432739
 31
0.0
  0
LINE
  5
9F
330
1F
100
AcDbEntity
  8
0
  6
Continuous
 62
     7
100
AcDbLine
 10
-60.53270952585268
 20
47.9729400432738
 30
0.0
 11
-57.53270952585268
 21
47.9729400432738
 31
0.0
  0
LINE
  5
A0
330
1F
100
AcDbEntity
  8
0
  6
Continuous
 62
     7
100
AcDbLine
 10
-57.43270952585266
 20
45.37294004327389
 30
0.0
 11
-57.53270952585268
 21
45.37294004327389
 31
0.0
  0
LINE
  5
A1
330
1F
100
AcDbEntity
  8
0
  6
Continuous
 62
     7
100
AcDbLine
 10
-60.53270952585268
 20
44.6729400432739
 30
0.0
 11
-57.53270952585268
 21
44.6729400432739
 31
0.0
  0
LINE
  5
A2
330
1F
100
AcDbEntity
  8
0
  6
Continuous
 62
     7
100
AcDbLine
 10
-57.43270952585266
 20
44.7729400432739
 30
0.0
 11
-57.43270952585283
 21
47.87294004327389
 31
0.0
  0
LINE
  5
A3
330
1F
100
AcDbEntity
  8
0
  6
Continuous
 62
     7
100
AcDbLine
 10
-57.63270952585282
 20
39.9729400432739
 30
0.0
 11
-60.43270952585283
 21
39.9729400432739
 31
0.0
  0
LINE
  5
A4
330
1F
100
AcDbEntity
  8
0
  6
Continuous
 62
     7
100
AcDbLine
 10
-57.63270952585282
 20
39.9729400432739
 30
0.0
 11
-57.63270952585282
 21
42.2729400432739
 31
0.0
  0
LINE
  5
A5
330
1F
100
AcDbEntity
  8
0
  6
Continuous
 62
     7
100
AcDbLine
 10
-60.43270952585283
 20
42.2729400432739
 30
0.0
 11
-57.63270952585282
 21
42.2729400432739
 31
0.0
  0
LINE
  5
A6
330
1F
100
AcDbEntity
  8
0
  6
Continuous
 62
     7
100
AcDbLine
 10
-60.43270952585283
 20
39.9729400432739
 30
0.0
 11
-60.43270952585283
 21
42.2729400432739
 31
0.0
  0
LINE
  5
A7
330
1F
100
AcDbEntity
  8
0
  6
Continuous
 62
     7
100
AcDbLine
 10
-61.0133224734783
 20
36.14570931782989
 30
0.0
 11
-59.95130066303597
 21
34.1055844015219
 31
0.0
  0
LINE
  5
A8
330
1F
100
AcDbEntity
  8
0
  6
Continuous
 62
     7
100
AcDbLine
 10
-58.52969214059522
 20
37.4386054348787
 30
0.0
 11
-61.0133224734783
 21
36.14570931782989
 31
0.0
  0
LINE
  5
A9
330
1F
100
AcDbEntity
  8
0
  6
Continuous
 62
     7
100
AcDbLine
 10
-57.46767033014061
 20
35.3984805185771
 30
0.0
 11
-58.52969214059522
 21
37.4386054348787
 31
0.0
  0
LINE
  5
AA
330
1F
100
AcDbEntity
  8
0
  6
Continuous
 62
     7
100
AcDbLine
 10
-57.46767033014061
 20
35.3984805185771
 30
0.0
 11
-59.95130066303597
 21
34.1055844015219
 31
0.0
  0
LINE
  5
AB
330
1F
100
AcDbEntity
  8
0
  6
Continuous
 62
     7
100
AcDbLine
 10
-56.27077257505681
 20
33.3158293802739
 30
0.0
 11
-58.93180507459141
 21
31.9305835405688
 31
0.0
  0
LINE
  5
AC
330
1F
100
AcDbEntity
  8
0
  6
Continuous
 62
     7
100
AcDbLine
 10
-57.5429105955572
 20
29.04597401307499
 30
0.0
 11
-58.97433129658583
 21
31.79570759592748
 31
0.0
  0
LINE
  5
AD
330
1F
100
AcDbEntity
  8
0
  6
Continuous
 62
     7
100
AcDbLine
 10
-55.9475485457923
 20
32.6949217970491
 30
0.0
 11
-55.85884746247439
 21
32.74109665837259
 31
0.0
  0
LINE
  5
AE
330
1F
100
AcDbEntity
  8
0
  6
Continuous
 62
     7
100
AcDbLine
 10
-57.4080346509158
 20
29.0034477910806
 30
0.0
 11
-54.7470021513812
 21
30.3886936307857
 31
0.0
  0
LINE
  5
AF
330
1F
100
AcDbEntity
  8
0
  6
Continuous
 62
     7
100
AcDbLine
 10
-58.6085810453269
 20
31.30967595734399
 30
0.0
 11
-55.9475485457923
 21
32.6949217970491
 31
0.0
  0
LINE
  5
B0
330
1F
100
AcDbEntity
  8
0
  6
Continuous
 62
     7
100
AcDbLine
 10
-58.6972821286447
 20
31.2635010960205
 30
0.0
 11
-58.6085810453269
 21
31.30967595734399
 31
0.0
  0
LINE
  5
B1
330
1F
100
AcDbEntity
  8
0
  6
Continuous
 62
     7
100
AcDbLine
 10
-54.70447592938677
 20
30.5235695754271
 30
0.0
 11
-56.1358966304154
 21
33.2733031582795
 31
0.0
  0
LINE
  5
B2
330
1F
100
AcDbEntity
  8
0
  6
Continuous
 62
     7
100
AcDbLine
 10
-67.05209657824389
 20
36.14570931783769
 30
0.0
 11
-69.53572691112618
 21
37.4386054348881
 31
0.0
  0
LINE
  5
B3
330
1F
100
AcDbEntity
  8
0
  6
Continuous
 62
     7
100
AcDbLine
 10
-68.11411838866957
 20
34.10558440152099
 30
0.0
 11
-67.05209657824389
 21
36.14570931783769
 31
0.0
  0
LINE
  5
B4
330
1F
100
AcDbEntity
  8
0
  6
Continuous
 62
     7
100
AcDbLine
 10
-69.53572691112618
 20
37.4386054348881
 30
0.0
 11
-70.59774872156225
 21
35.3984805185768
 31
0.0
  0
LINE
  5
B5
330
1F
100
AcDbEntity
  8
0
  6
Continuous
 62
     7
100
AcDbLine
 10
-68.11411838866957
 20
34.10558440152099
 30
0.0
 11
-70.59774872156225
 21
35.3984805185768
 31
0.0
  0
LINE
  5
B6
330
1F
100
AcDbEntity
  8
0
  6
Continuous
 62
     7
100
AcDbLine
 10
-70.52250845614833
 20
29.04597401307499
 30
0.0
 11
-69.0910877551197
 21
31.7957075959275
 31
0.0
  0
LINE
  5
B7
330
1F
100
AcDbEntity
  8
0
  6
Continuous
 62
     7
100
AcDbLine
 10
-69.45683800637852
 20
31.30967595734409
 30
0.0
 11
-69.3681369230606
 21
31.2635010960206
 31
0.0
  0
LINE
  5
B8
330
1F
100
AcDbEntity
  8
0
  6
Continuous
 62
     7
100
AcDbLine
 10
-69.13361397711401
 20
31.9305835405688
 30
0.0
 11
-71.79464647664861
 21
33.3158293802739
 31
0.0
  0
LINE
  5
B9
330
1F
100
AcDbEntity
  8
0
  6
Continuous
 62
     7
100
AcDbLine
 10
-72.11787050591312
 20
32.6949217970492
 30
0.0
 11
-69.45683800637852
 21
31.30967595734409
 31
0.0
  0
LINE
  5
BA
330
1F
100
AcDbEntity
  8
0
  6
Continuous
 62
     7
100
AcDbLine
 10
-71.92952242129002
 20
33.2733031582796
 30
0.0
 11
-73.36094312231859
 21
30.5235695754271
 31
0.0
  0
LINE
  5
BB
330
1F
100
AcDbEntity
  8
0
  6
Continuous
 62
     7
100
AcDbLine
 10
-72.20657158923098
 20
32.74109665837273
 30
0.0
 11
-72.11787050591312
 21
32.6949217970492
 31
0.0
  0
LINE
  5
BC
330
1F
100
AcDbEntity
  8
0
  6
Continuous
 62
     7
100
AcDbLine
 10
-73.31841690032434
 20
30.38869363078582
 30
0.0
 11
-70.65738440078957
 21
29.00344779108074
 31
0.0
  0
LINE
  5
BD
330
1F
100
AcDbEntity
  8
0
  6
Continuous
 62
     7
100
AcDbLine
 10
-73.53270952585268
 20
40.0729400432738
 30
0.0
 11
-73.53270952585268
 21
36.87294004327379
 31
0.0
  0
LINE
  5
BE
330
1F
100
AcDbEntity
  8
0
  6
Continuous
 62
     7
100
AcDbLine
 10
-74.53270952585268
 20
40.0729400432738
 30
0.0
 11
-73.03270952585268
 21
40.0729400432738
 31
0.0
  0
LINE
  5
BF
330
1F
100
AcDbEntity
  8
0
  6
Continuous
 62
     7
100
AcDbLine
 10
-55.03270952585268
 20
40.0729400432738
 30
0.0
 11
-55.0327095258527
 21
36.87294004327385
 31
0.0
  0
LINE
  5
C0
330
1F
100
AcDbEntity
  8
0
  6
Continuous
 62
     7
100
AcDbLine
 10
-55.03270952585268
 20
40.0729400432738
 30
0.0
 11
-53.53270952585268
 21
40.0729400432738
 31
0.0
  0
LINE
  5
C1
330
1F
100
AcDbEntity
  8
0
  6
Continuous
 62
     7
100
AcDbLine
 10
-54.53270952585268
 20
40.0729400432738
 30
0.0
 11
-54.5327095258527
 21
36.87294004327391
 31
0.0
  0
LINE
  5
C2
330
1F
100
AcDbEntity
  8
0
  6
Continuous
 62
     7
100
AcDbLine
 10
-53.55579695651448
 20
36.91729058493299
 30
0.0
 11
-55.05579695651448
 21
36.91729058493299
 31
0.0
  0
LINE
  5
C3
330
1F
100
AcDbEntity
  8
0
  6
Continuous
 62
     7
100
AcDbLine
 10
-73.03270952585268
 20
40.0729400432738
 30
0.0
 11
-73.03270952585268
 21
36.87294004327386
 31
0.0
  0
LINE
  5
C4
330
1F
100
AcDbEntity
  8
0
  6
Continuous
 62
     7
100
AcDbLine
 10
-73.03270952585268
 20
36.87294004327386
 30
0.0
 11
-74.5327095258527
 21
36.87294004327391
 31
0.0
  0
LINE
  5
C5
102
{ACAD_REACTORS
330
32E
102
}
330
1F
100
AcDbEntity
  8
0
  6
Continuous
 62
     7
100
AcDbLine
 10
-53.53270952585268
 20
45.9729400432738
 30
0.0
 11
-53.5327095258527
 21
30.9729400432739
 31
0.0
  0
LINE
  5
C6
330
1F
100
AcDbEntity
  8
0
  6
Continuous
 62
     7
100
AcDbLine
 10
-59.23270952585268
 20
27.9729400432739
 30
0.0
 11
-61.0327095258527
 21
29.7729400432738
 31
0.0
  0
LINE
  5
C7
102
{ACAD_REACTORS
330
32E
102
}
330
1F
100
AcDbEntity
  8
0
  6
Continuous
 62
     7
100
AcDbLine
 10
-74.5327095258527
 20
30.9729400432739
 30
0.0
 11
-74.53270952585268
 21
45.9729400432738
 31
0.0
  0
LINE
  5
C8
330
1F
100
AcDbEntity
  8
0
  6
Continuous
 62
     7
100
AcDbLine
 10
-61.0327095258527
 20
29.7729400432738
 30
0.0
 11
-67.03270952585268
 21
29.7729400432738
 31
0.0
  0
LINE
  5
C9
330
1F
100
AcDbEntity
  8
0
  6
Continuous
 62
     7
100
AcDbLine
 10
-67.03270952585268
 20
29.7729400432738
 30
0.0
 11
-68.83270952585265
 21
27.9729400432739
 31
0.0
  0
LINE
  5
CA
102
{ACAD_REACTORS
330
32E
102
}
330
1F
100
AcDbEntity
  8
0
  6
Continuous
 62
     7
100
AcDbLine
 10
-71.5327095258527
 20
48.9729400432739
 30
0.0
 11
-56.53270952585268
 21
48.9729400432738
 31
0.0
  0
LINE
  5
CB
330
1F
100
AcDbEntity
  8
1
  6
Continuous
 62
     7
100
AcDbLine
 10
-65.73270168406674
 20
42.7229400432739
 30
0.0
 11
-65.73270168406674
 21
42.0848127479725
 31
0.0
  0
LINE
  5
CC
330
1F
100
AcDbEntity
  8
1
  6
Continuous
 62
     7
100
AcDbLine
 10
-66.41167082453694
 20
42.7229400432739
 30
0.0
 11
-65.05027598557211
 21
42.7229400432739
 31
0.0
  0
LINE
  5
CD
330
1F
100
AcDbEntity
  8
1
  6
Continuous
 62
     7
100
AcDbLine
 10
-65.28988147722993
 20
43.0224469078461
 30
0.0
 11
-66.17206533287913
 21
43.0224469078461
 31
0.0
  0
LINE
  5
CE
330
1F
100
AcDbEntity
  8
1
  6
Continuous
 62
     7
100
AcDbLine
 10
-65.52948696888774
 20
43.32195377241839
 30
0.0
 11
-65.93245984122143
 21
43.32195377241839
 31
0.0
  0
LINE
  5
CF
102
{ACAD_REACTORS
330
326
102
}
330
1F
100
AcDbEntity
  8
1
  6
Continuous
 62
     7
100
AcDbLine
 10
-69.93311932166097
 20
33.6432689185764
 30
0.0
 11
-71.03521430945335
 21
33.25870860096286
 31
0.0
  0
LINE
  5
D0
102
{ACAD_REACTORS
330
326
102
}
330
1F
100
AcDbEntity
  8
1
  6
Continuous
 62
     7
100
AcDbLine
 10
-71.03521430945335
 20
33.25870860096286
 30
0.0
 11
-69.61599697636814
 21
32.51991081978682
 31
0.0
  0
LINE
  5
D1
102
{ACAD_REACTORS
330
326
102
}
330
1F
100
AcDbEntity
  8
1
  6
Continuous
 62
     7
100
AcDbLine
 10
-69.61599697636814
 20
32.51991081978682
 30
0.0
 11
-69.93311932166097
 21
33.6432689185764
 31
0.0
  0
LINE
  5
D2
102
{ACAD_REACTORS
330
322
102
}
330
1F
100
AcDbEntity
  8
1
  6
Continuous
 62
     7
100
AcDbLine
 10
-59.83270952585286
 20
44.37294004327401
 30
0.0
 11
-59.03270952585285
 21
43.5229400432739
 31
0.0
  0
LINE
  5
D3
102
{ACAD_REACTORS
330
322
102
}
330
1F
100
AcDbEntity
  8
1
  6
Continuous
 62
     7
100
AcDbLine
 10
-58.2327095258529
 20
44.37294004327401
 30
0.0
 11
-59.83270952585286
 21
44.37294004327401
 31
0.0
  0
LINE
  5
D4
102
{ACAD_REACTORS
330
322
102
}
330
1F
100
AcDbEntity
  8
1
  6
Continuous
 62
     7
100
AcDbLine
 10
-59.03270952585285
 20
43.5229400432739
 30
0.0
 11
-58.2327095258529
 21
44.37294004327401
 31
0.0
  0
LINE
  5
D5
102
{ACAD_REACTORS
330
323
102
}
330
1F
100
AcDbEntity
  8
1
  6
Continuous
 62
     7
100
AcDbLine
 10
-69.83270952585247
 20
44.37294004327401
 30
0.0
 11
-69.03270952585251
 21
43.5229400432739
 31
0.0
  0
LINE
  5
D6
102
{ACAD_REACTORS
330
323
102
}
330
1F
100
AcDbEntity
  8
1
  6
Continuous
 62
     7
100
AcDbLine
 10
-68.2327095258525
 20
44.37294004327401
 30
0.0
 11
-69.83270952585247
 21
44.37294004327401
 31
0.0
  0
LINE
  5
D7
102
{ACAD_REACTORS
330
323
102
}
330
1F
100
AcDbEntity
  8
1
  6
Continuous
 62
     7
100
AcDbLine
 10
-69.03270952585251
 20
43.5229400432739
 30
0.0
 11
-68.2327095258525
 21
44.37294004327401
 31
0.0
  0
LINE
  5
D8
102
{ACAD_REACTORS
330
324
102
}
330
1F
100
AcDbEntity
  8
1
  6
Continuous
 62
     7
100
AcDbLine
 10
-58.44942207533717
 20
32.51991081978679
 30
0.0
 11
-57.03020474225201
 21
33.2587086009628
 31
0.0
  0
LINE
  5
D9
102
{ACAD_REACTORS
330
324
102
}
330
1F
100
AcDbEntity
  8
1
  6
Continuous
 62
     7
100
AcDbLine
 10
-58.13229973004439
 20
33.6432689185764
 30
0.0
 11
-58.44942207533717
 21
32.51991081978679
 31
0.0
  0
LINE
  5
DA
102
{ACAD_REACTORS
330
324
102
}
330
1F
100
AcDbEntity
  8
1
  6
Continuous
 62
     7
100
AcDbLine
 10
-57.03020474225201
 20
33.2587086009628
 30
0.0
 11
-58.13229973004439
 21
33.6432689185764
 31
0.0
  0
LINE
  5
DB
330
1F
100
AcDbEntity
  8
1
  6
Continuous
 62
     7
100
AcDbLine
 10
-66.73270952585261
 20
48.9729400432738
 30
0.0
 11
-66.73270952585261
 21
38.87294004327379
 31
0.0
  0
LINE
  5
DC
330
1F
100
AcDbEntity
  8
1
  6
Continuous
 62
     7
100
AcDbLine
 10
-65.73270952585261
 20
37.87294004327379
 30
0.0
 11
-62.33270952585275
 21
37.87294004327379
 31
0.0
  0
LINE
  5
DD
330
1F
100
AcDbEntity
  8
1
  6
Continuous
 62
     7
100
AcDbLine
 10
-61.33270952585275
 20
38.87294004327379
 30
0.0
 11
-61.33270952585275
 21
48.9729400432738
 31
0.0
  0
LINE
  5
DE
102
{ACAD_REACTORS
330
325
102
}
330
1F
100
AcDbEntity
  8
1
  6
Continuous
 62
     7
100
AcDbLine
 10
-63.23270952585273
 20
42.0729400432737
 30
0.0
 11
-64.03270952585274
 21
42.92294004327379
 31
0.0
  0
LINE
  5
DF
102
{ACAD_REACTORS
330
325
102
}
330
1F
100
AcDbEntity
  8
1
  6
Continuous
 62
     7
100
AcDbLine
 10
-64.83270952585275
 20
42.0729400432737
 30
0.0
 11
-63.23270952585273
 21
42.0729400432737
 31
0.0
  0
LINE
  5
E0
102
{ACAD_REACTORS
330
325
102
}
330
1F
100
AcDbEntity
  8
1
  6
Continuous
 62
     7
100
AcDbLine
 10
-64.03270952585274
 20
42.92294004327379
 30
0.0
 11
-64.83270952585275
 21
42.0729400432737
 31
0.0
  0
LINE
  5
E1
330
1F
100
AcDbEntity
  8
1
  6
Continuous
 62
     4
100
AcDbLine
 10
-64.03270952585274
 20
130.43683393457
 30
0.0
 11
-64.03270952585274
 21
129.7229400432738
 31
0.0
  0
LINE
  5
E2
330
1F
100
AcDbEntity
  8
1
  6
Continuous
 62
     4
100
AcDbLine
 10
-64.76655367424951
 20
129.7229400432738
 30
0.0
 11
-63.29886537745642
 21
129.7229400432738
 31
0.0
  0
LINE
  5
E3
330
1F
100
AcDbEntity
  8
1
  6
Continuous
 62
     4
100
AcDbLine
 10
-64.51808266084976
 20
129.380763369449
 30
0.0
 11
-63.54733639085646
 21
129.380763369449
 31
0.0
  0
LINE
  5
E4
330
1F
100
AcDbEntity
  8
1
  6
Continuous
 62
     4
100
AcDbLine
 10
-64.26961164745035
 20
129.038586695625
 30
0.0
 11
-63.79580740425615
 21
129.038586695625
 31
0.0
  0
LINE
  5
E5
330
1F
100
AcDbEntity
  8
1
  6
Continuous
 62
     7
100
AcDbLine
 10
-24.88270952585256
 20
79.69294004327382
 30
0.0
 11
-21.88270952585245
 21
79.69294004327391
 31
0.0
  0
LINE
  5
E6
330
1F
100
AcDbEntity
  8
0
  6
Continuous
 62
     7
100
AcDbLine
 10
-74.53270952585268
 20
69.14294004327458
 30
0.0
 11
-74.53270952585268
 21
94.49294004327406
 31
0.0
  0
LINE
  5
E7
330
1F
100
AcDbEntity
  8
0
  6
Continuous
 62
     7
100
AcDbLine
 10
-53.5327095258527
 20
69.14294004327444
 30
0.0
 11
-53.5327095258527
 21
91.99294004327494
 31
0.0
  0
LINE
  5
E8
102
{ACAD_REACTORS
330
327
102
}
330
1F
100
AcDbEntity
  8
1
  6
Continuous
 62
     7
100
AcDbLine
 10
-11.38270952585238
 20
68.842940043274
 30
0.0
 11
-11.38270952585238
 21
67.14294004327401
 31
0.0
  0
LINE
  5
E9
102
{ACAD_REACTORS
330
327
102
}
330
1F
100
AcDbEntity
  8
1
  6
Continuous
 62
     7
100
AcDbLine
 10
-35.38270952585194
 20
67.14294004327412
 30
0.0
 11
-35.38270952585221
 21
68.842940043274
 31
0.0
  0
LINE
  5
EA
102
{ACAD_REACTORS
330
327
102
}
330
1F
100
AcDbEntity
  8
1
  6
Continuous
 62
     7
100
AcDbLine
 10
-11.6827095258524
 20
69.14294004327401
 30
0.0
 11
-35.08270952585232
 21
69.14294004327401
 31
0.0
  0
LINE
  5
EB
102
{ACAD_REACTORS
330
327
102
}
330
1F
100
AcDbEntity
  8
1
  6
Continuous
 62
     7
100
AcDbLine
 10
-11.68270952585212
 20
66.84294004327411
 30
0.0
 11
-35.08270952585232
 21
66.842940043274
 31
0.0
  0
LINE
  5
EC
102
{ACAD_REACTORS
330
328
102
}
330
1F
100
AcDbEntity
  8
1
  6
Continuous
 62
     7
100
AcDbLine
 10
-52.33270952585275
 20
66.84294004327411
 30
0.0
 11
-75.73270952585256
 21
66.84294004327411
 31
0.0
  0
LINE
  5
ED
102
{ACAD_REACTORS
330
328
102
}
330
1F
100
AcDbEntity
  8
1
  6
Continuous
 62
     7
100
AcDbLine
 10
-52.33270952585248
 20
69.14294004327401
 30
0.0
 11
-75.73270952585256
 21
69.14294004327412
 31
0.0
  0
LINE
  5
EE
102
{ACAD_REACTORS
330
328
102
}
330
1F
100
AcDbEntity
  8
1
  6
Continuous
 62
     7
100
AcDbLine
 10
-76.03270952585257
 20
67.14294004327412
 30
0.0
 11
-76.03270952585257
 21
68.84294004327411
 31
0.0
  0
LINE
  5
EF
102
{ACAD_REACTORS
330
328
102
}
330
1F
100
AcDbEntity
  8
1
  6
Continuous
 62
     7
100
AcDbLine
 10
-52.03270952585258
 20
68.842940043274
 30
0.0
 11
-52.03270952585274
 21
67.14294004327412
 31
0.0
  0
LINE
  5
F0
102
{ACAD_REACTORS
330
329
102
}
330
1F
100
AcDbEntity
  8
1
  6
Continuous
 62
     7
100
AcDbLine
 10
-72.0327095258527
 20
114.622940043274
 30
0.0
 11
-56.03270952585274
 21
114.622940043274
 31
0.0
  0
LINE
  5
F1
102
{ACAD_REACTORS
330
329
102
}
330
1F
100
AcDbEntity
  8
1
  6
Continuous
 62
     7
100
AcDbLine
 10
-76.03270952585285
 20
134.6229400432741
 30
0.0
 11
-76.0327095258527
 21
118.622940043274
 31
0.0
  0
LINE
  5
F2
102
{ACAD_REACTORS
330
329
102
}
330
1F
100
AcDbEntity
  8
1
  6
Continuous
 62
     7
100
AcDbLine
 10
-56.03270952585274
 20
138.6229400432741
 30
0.0
 11
-72.03270952585285
 21
138.6229400432741
 31
0.0
  0
LINE
  5
F3
102
{ACAD_REACTORS
330
329
102
}
330
1F
100
AcDbEntity
  8
1
  6
Continuous
 62
     7
100
AcDbLine
 10
-52.03270952585274
 20
118.622940043274
 30
0.0
 11
-52.0327095258527
 21
134.6229400432741
 31
0.0
  0
LINE
  5
F4
330
1F
100
AcDbEntity
  8
0
  6
Continuous
 62
     7
100
AcDbLine
 10
-62.28270952585262
 20
126.1229400432737
 30
0.0
 11
-62.28270952585262
 21
130.8410362869769
 31
0.0
  0
LINE
  5
F5
330
1F
100
AcDbEntity
  8
0
  6
Continuous
 62
     7
100
AcDbLine
 10
-66.28270952585262
 20
125.6229400432737
 30
0.0
 11
-72.53270952585274
 21
125.6229400432737
 31
0.0
  0
LINE
  5
F6
102
{ACAD_REACTORS
330
329
102
}
330
1F
100
AcDbEntity
  8
0
  6
Continuous
 62
     7
100
AcDbLine
 10
-73.78270952585274
 20
131.1229400432739
 30
0.0
 11
-73.78270952585274
 21
134.122940043274
 31
0.0
  0
LINE
  5
F7
102
{ACAD_REACTORS
330
329
102
}
330
1F
100
AcDbEntity
  8
0
  6
Continuous
 62
     7
100
AcDbLine
 10
-73.33270952585275
 20
125.122940043274
 30
0.0
 11
-73.33270952585275
 21
128.122940043274
 31
0.0
  0
LINE
  5
F8
330
1F
100
AcDbEntity
  8
0
  6
Continuous
 62
     7
100
AcDbLine
 10
-72.53270952585274
 20
133.622940043274
 30
0.0
 11
-72.53270952585274
 21
119.622940043274
 31
0.0
  0
LINE
  5
F9
102
{ACAD_REACTORS
330
329
102
}
330
1F
100
AcDbEntity
  8
0
  6
Continuous
 62
     7
100
AcDbLine
 10
-74.53270952585274
 20
125.122940043274
 30
0.0
 11
-73.33270952585275
 21
125.122940043274
 31
0.0
  0
LINE
  5
FA
102
{ACAD_REACTORS
330
329
102
}
330
1F
100
AcDbEntity
  8
0
  6
Continuous
 62
     7
100
AcDbLine
 10
-74.53270952585274
 20
128.122940043274
 30
0.0
 11
-74.53270952585274
 21
131.1229400432739
 31
0.0
  0
LINE
  5
FB
102
{ACAD_REACTORS
330
329
102
}
330
1F
100
AcDbEntity
  8
0
  6
Continuous
 62
     7
100
AcDbLine
 10
-73.78270952585274
 20
131.1229400432739
 30
0.0
 11
-74.53270952585274
 21
131.1229400432739
 31
0.0
  0
LINE
  5
FC
102
{ACAD_REACTORS
330
329
102
}
330
1F
100
AcDbEntity
  8
0
  6
Continuous
 62
     7
100
AcDbLine
 10
-73.33270952585275
 20
128.122940043274
 30
0.0
 11
-74.53270952585274
 21
128.122940043274
 31
0.0
  0
LINE
  5
FD
330
1F
100
AcDbEntity
  8
0
  6
Continuous
 62
     7
100
AcDbLine
 10
-67.98270952585261
 20
127.6229400432737
 30
0.0
 11
-72.53270952585274
 21
127.6229400432737
 31
0.0
  0
LINE
  5
FE
330
1F
100
AcDbEntity
  8
0
  6
Continuous
 62
     7
100
AcDbLine
 10
-58.91512179935893
 20
135.1229400432737
 30
0.0
 11
-60.58270952585275
 21
130.5412804197725
 31
0.0
  0
LINE
  5
FF
330
1F
100
AcDbEntity
  8
0
  6
Continuous
 62
     7
100
AcDbLine
 10
-60.58270952585275
 20
130.5412804197725
 30
0.0
 11
-60.58270952585275
 21
128.1229400432737
 31
0.0
  0
LINE
  5
100
102
{ACAD_REACTORS
330
329
102
}
330
1F
100
AcDbEntity
  8
0
  6
Continuous
 62
     7
100
AcDbLine
 10
-61.03270952585274
 20
136.3729400432739
 30
0.0
 11
-61.03270952585274
 21
137.1229400432739
 31
0.0
  0
LINE
  5
101
102
{ACAD_REACTORS
330
329
102
}
330
1F
100
AcDbEntity
  8
0
  6
Continuous
 62
     7
100
AcDbLine
 10
-73.78270952585274
 20
119.122940043274
 30
0.0
 11
-73.78270952585274
 21
122.122940043274
 31
0.0
  0
LINE
  5
102
330
1F
100
AcDbEntity
  8
0
  6
Continuous
 62
     7
100
AcDbLine
 10
-61.23270952585261
 20
119.522940043274
 30
0.0
 11
-66.83270952585275
 21
119.522940043274
 31
0.0
  0
LINE
  5
103
102
{ACAD_REACTORS
330
329
102
}
330
1F
100
AcDbEntity
  8
0
  6
Continuous
 62
     7
100
AcDbLine
 10
-74.53270952585274
 20
122.122940043274
 30
0.0
 11
-74.53270952585274
 21
125.122940043274
 31
0.0
  0
LINE
  5
104
102
{ACAD_REACTORS
330
329
102
}
330
1F
100
AcDbEntity
  8
0
  6
Continuous
 62
     7
100
AcDbLine
 10
-74.53270952585274
 20
122.122940043274
 30
0.0
 11
-73.78270952585274
 21
122.122940043274
 31
0.0
  0
LINE
  5
105
102
{ACAD_REACTORS
330
329
102
}
330
1F
100
AcDbEntity
  8
0
  6
Continuous
 62
     7
100
AcDbLine
 10
-54.28270952585274
 20
119.122940043274
 30
0.0
 11
-54.28270952585274
 21
122.122940043274
 31
0.0
  0
LINE
  5
106
330
1F
100
AcDbEntity
  8
0
  6
Continuous
 62
     7
100
AcDbLine
 10
-67.03270952585262
 20
119.022940043274
 30
0.0
 11
-67.03270952585262
 21
119.322940043274
 31
0.0
  0
LINE
  5
107
330
1F
100
AcDbEntity
  8
0
  6
Continuous
 62
     7
100
AcDbLine
 10
-61.03270952585262
 20
119.022940043274
 30
0.0
 11
-61.03270952585262
 21
119.322940043274
 31
0.0
  0
LINE
  5
108
330
1F
100
AcDbEntity
  8
0
  6
Continuous
 62
     7
100
AcDbLine
 10
-55.53270952585274
 20
125.6229400432737
 30
0.0
 11
-61.78270952585262
 21
125.6229400432737
 31
0.0
  0
LINE
  5
109
330
1F
100
AcDbEntity
  8
0
  6
Continuous
 62
     7
100
AcDbLine
 10
-57.03270952585274
 20
118.122940043274
 30
0.0
 11
-61.03270952585262
 21
118.122940043274
 31
0.0
  0
LINE
  5
10A
330
1F
100
AcDbEntity
  8
0
  6
Continuous
 62
     7
100
AcDbLine
 10
-62.28270952585262
 20
130.8410362869769
 30
0.0
 11
-60.72422401256802
 21
135.1229400432737
 31
0.0
  0
LINE
  5
10B
102
{ACAD_REACTORS
330
329
102
}
330
1F
100
AcDbEntity
  8
0
  6
Continuous
 62
     7
100
AcDbLine
 10
-54.28270952585274
 20
134.122940043274
 30
0.0
 11
-54.28270952585274
 21
131.1229400432739
 31
0.0
  0
LINE
  5
10C
102
{ACAD_REACTORS
330
329
102
}
330
1F
100
AcDbEntity
  8
0
  6
Continuous
 62
     7
100
AcDbLine
 10
-56.53270952585274
 20
136.372940043274
 30
0.0
 11
-61.03270952585274
 21
136.3729400432739
 31
0.0
  0
LINE
  5
10D
102
{ACAD_REACTORS
330
329
102
}
330
1F
100
AcDbEntity
  8
0
  6
Continuous
 62
     7
100
AcDbLine
 10
-67.03270952585274
 20
137.1229400432739
 30
0.0
 11
-61.03270952585274
 21
137.1229400432739
 31
0.0
  0
LINE
  5
10E
330
1F
100
AcDbEntity
  8
0
  6
Continuous
 62
     7
100
AcDbLine
 10
-61.03270952585262
 20
119.022940043274
 30
0.0
 11
-61.03270952585262
 21
118.022940043274
 31
0.0
  0
LINE
  5
10F
330
1F
100
AcDbEntity
  8
0
  6
Continuous
 62
     7
100
AcDbLine
 10
-67.03270952585262
 20
118.022940043274
 30
0.0
 11
-67.03270952585262
 21
119.022940043274
 31
0.0
  0
LINE
  5
110
330
1F
100
AcDbEntity
  8
0
  6
Continuous
 62
     7
100
AcDbLine
 10
-67.03270952585262
 20
118.122940043274
 30
0.0
 11
-71.03270952585274
 21
118.122940043274
 31
0.0
  0
LINE
  5
111
102
{ACAD_REACTORS
330
329
102
}
330
1F
100
AcDbEntity
  8
0
  6
Continuous
 62
     7
100
AcDbLine
 10
-71.53270952585274
 20
116.872940043274
 30
0.0
 11
-56.53270952585274
 21
116.872940043274
 31
0.0
  0
LINE
  5
112
330
1F
100
AcDbEntity
  8
0
  6
Continuous
 62
     7
100
AcDbLine
 10
-69.15029725234655
 20
135.1229400432737
 30
0.0
 11
-67.48270952585261
 21
130.5412804197725
 31
0.0
  0
LINE
  5
113
330
1F
100
AcDbEntity
  8
0
  6
Continuous
 62
     7
100
AcDbLine
 10
-67.34119503913746
 20
135.1229400432737
 30
0.0
 11
-65.78270952585274
 21
130.8410362869769
 31
0.0
  0
LINE
  5
114
330
1F
100
AcDbEntity
  8
0
  6
Continuous
 62
     7
100
AcDbLine
 10
-67.48270952585261
 20
130.5412804197725
 30
0.0
 11
-67.48270952585261
 21
128.1229400432737
 31
0.0
  0
LINE
  5
115
330
1F
100
AcDbEntity
  8
0
  6
Continuous
 62
     7
100
AcDbLine
 10
-65.78270952585274
 20
130.8410362869769
 30
0.0
 11
-65.78270952585262
 21
126.1229400432737
 31
0.0
  0
LINE
  5
116
102
{ACAD_REACTORS
330
329
102
}
330
1F
100
AcDbEntity
  8
0
  6
Continuous
 62
     7
100
AcDbLine
 10
-67.03270952585274
 20
136.3729400432739
 30
0.0
 11
-71.53270952585274
 21
136.372940043274
 31
0.0
  0
LINE
  5
117
330
1F
100
AcDbEntity
  8
0
  6
Continuous
 62
     7
100
AcDbLine
 10
-57.03270952585274
 20
135.122940043274
 30
0.0
 11
-71.03270952585274
 21
135.122940043274
 31
0.0
  0
LINE
  5
118
102
{ACAD_REACTORS
330
329
102
}
330
1F
100
AcDbEntity
  8
0
  6
Continuous
 62
     7
100
AcDbLine
 10
-67.03270952585274
 20
137.1229400432739
 30
0.0
 11
-67.03270952585274
 21
136.3729400432739
 31
0.0
  0
LINE
  5
119
330
1F
100
AcDbEntity
  8
0
  6
Continuous
 62
     7
100
AcDbLine
 10
-55.53270952585274
 20
119.622940043274
 30
0.0
 11
-55.53270952585274
 21
133.622940043274
 31
0.0
  0
LINE
  5
11A
102
{ACAD_REACTORS
330
329
102
}
330
1F
100
AcDbEntity
  8
0
  6
Continuous
 62
     7
100
AcDbLine
 10
-53.53270952585274
 20
125.1229400432735
 30
0.0
 11
-53.53270952585274
 21
122.122940043274
 31
0.0
  0
LINE
  5
11B
102
{ACAD_REACTORS
330
329
102
}
330
1F
100
AcDbEntity
  8
0
  6
Continuous
 62
     7
100
AcDbLine
 10
-53.53270952585274
 20
131.1229400432739
 30
0.0
 11
-53.53270952585274
 21
128.1229400432736
 31
0.0
  0
LINE
  5
11C
102
{ACAD_REACTORS
330
329
102
}
330
1F
100
AcDbEntity
  8
0
  6
Continuous
 62
     7
100
AcDbLine
 10
-54.73270952585273
 20
125.1229400432735
 30
0.0
 11
-54.73270952585273
 21
128.1229400432735
 31
0.0
  0
LINE
  5
11D
330
1F
100
AcDbEntity
  8
0
  6
Continuous
 62
     7
100
AcDbLine
 10
-55.53270952585274
 20
127.6229400432737
 30
0.0
 11
-60.08270952585275
 21
127.6229400432737
 31
0.0
  0
LINE
  5
11E
102
{ACAD_REACTORS
330
329
102
}
330
1F
100
AcDbEntity
  8
0
  6
Continuous
 62
     7
100
AcDbLine
 10
-53.53270952585274
 20
131.1229400432739
 30
0.0
 11
-54.28270952585274
 21
131.1229400432739
 31
0.0
  0
LINE
  5
11F
102
{ACAD_REACTORS
330
329
102
}
330
1F
100
AcDbEntity
  8
0
  6
Continuous
 62
     7
100
AcDbLine
 10
-54.28270952585274
 20
122.122940043274
 30
0.0
 11
-53.53270952585274
 21
122.122940043274
 31
0.0
  0
LINE
  5
120
102
{ACAD_REACTORS
330
329
102
}
330
1F
100
AcDbEntity
  8
0
  6
Continuous
 62
     7
100
AcDbLine
 10
-53.53270952585274
 20
125.1229400432735
 30
0.0
 11
-54.73270952585273
 21
125.1229400432735
 31
0.0
  0
LINE
  5
121
102
{ACAD_REACTORS
330
329
102
}
330
1F
100
AcDbEntity
  8
0
  6
Continuous
 62
     7
100
AcDbLine
 10
-53.53270952585274
 20
128.1229400432736
 30
0.0
 11
-54.73270952585273
 21
128.1229400432735
 31
0.0
  0
LINE
  5
122
330
1F
100
AcDbEntity
  8
0
  6
Continuous
 62
     7
100
AcDbLine
 10
-63.43166876184404
 20
81.15966623223194
 30
0.0
 11
-62.35596044410079
 21
82.23537454997528
 31
0.0
  0
LINE
  5
123
330
1F
100
AcDbEntity
  8
0
  6
Continuous
 62
     7
100
AcDbLine
 10
-62.86598333689489
 20
79.39189927926559
 30
0.0
 11
-62.51242994630155
 21
79.03834588867231
 31
0.0
  0
LINE
  5
124
330
1F
100
AcDbEntity
  8
0
  6
Continuous
 62
     7
100
AcDbLine
 10
-62.8659833368949
 20
80.59398080728259
 30
0.0
 11
-63.43166876184404
 21
81.15966623223194
 31
0.0
  0
LINE
  5
125
330
1F
100
AcDbEntity
  8
0
  6
Continuous
 62
     7
100
AcDbLine
 10
-63.22857452585265
 20
79.99294004327415
 30
0.0
 11
-62.86598333689489
 21
79.39189927926559
 31
0.0
  0
LINE
  5
126
330
1F
100
AcDbEntity
  8
0
  6
Continuous
 62
     7
100
AcDbLine
 10
-62.8659833368949
 20
80.59398080728259
 30
0.0
 11
-63.22857452585265
 21
79.99294004327415
 31
0.0
  0
LINE
  5
127
330
1F
100
AcDbEntity
  8
0
  6
Continuous
 62
     7
100
AcDbLine
 10
-64.03270952585268
 20
79.18880504327414
 30
0.0
 11
-64.63375028986115
 21
78.8262138543164
 31
0.0
  0
LINE
  5
128
330
1F
100
AcDbEntity
  8
0
  6
Continuous
 62
     7
100
AcDbLine
 10
-63.43166876184404
 20
78.82621385431635
 30
0.0
 11
-64.03270952585268
 21
79.18880504327414
 31
0.0
  0
LINE
  5
129
330
1F
100
AcDbEntity
  8
0
  6
Continuous
 62
     7
100
AcDbLine
 10
-64.63375028986115
 20
81.15966623223194
 30
0.0
 11
-64.03270952585268
 21
80.79707504327415
 31
0.0
  0
LINE
  5
12A
330
1F
100
AcDbEntity
  8
0
  6
Continuous
 62
     7
100
AcDbLine
 10
-64.03270952585268
 20
80.79707504327415
 30
0.0
 11
-63.43166876184404
 21
81.15966623223194
 31
0.0
  0
LINE
  5
12B
330
1F
100
AcDbEntity
  8
0
  6
Continuous
 62
     7
100
AcDbLine
 10
-64.98730368045449
 20
81.51321962282522
 30
0.0
 11
-64.63375028986115
 21
81.15966623223194
 31
0.0
  0
LINE
  5
12C
330
1F
100
AcDbEntity
  8
0
  6
Continuous
 62
     7
100
AcDbLine
 10
-64.83684452585265
 20
79.99294004327415
 30
0.0
 11
-65.19943571481048
 21
80.59398080728273
 31
0.0
  0
LINE
  5
12D
330
1F
100
AcDbEntity
  8
0
  6
Continuous
 62
     7
100
AcDbLine
 10
-65.19943571481048
 20
79.39189927926556
 30
0.0
 11
-64.83684452585265
 21
79.99294004327415
 31
0.0
  0
LINE
  5
12E
330
1F
100
AcDbEntity
  8
0
  6
Continuous
 62
     7
100
AcDbLine
 10
-65.19943571481048
 20
79.39189927926556
 30
0.0
 11
-64.63375028986115
 21
78.8262138543164
 31
0.0
  0
LINE
  5
12F
330
1F
100
AcDbEntity
  8
0
  6
Continuous
 62
     7
100
AcDbLine
 10
-61.79027501915148
 20
81.66968912502593
 30
0.0
 11
-62.8659833368949
 21
80.59398080728259
 31
0.0
  0
LINE
  5
130
330
1F
100
AcDbEntity
  8
0
  6
Continuous
 62
     7
100
AcDbLine
 10
-62.51242994630155
 20
79.03834588867231
 30
0.0
 11
-63.07811537125076
 21
78.47266046372307
 31
0.0
  0
LINE
  5
131
330
1F
100
AcDbEntity
  8
0
  6
Continuous
 62
     7
100
AcDbLine
 10
-63.07811537125076
 20
78.47266046372307
 30
0.0
 11
-63.43166876184404
 21
78.82621385431635
 31
0.0
  0
LINE
  5
132
330
1F
100
AcDbEntity
  8
0
  6
Continuous
 62
     7
100
AcDbLine
 10
-64.63375028986115
 20
78.8262138543164
 30
0.0
 11
-65.70945860760457
 21
77.75050553657299
 31
0.0
  0
LINE
  5
133
330
1F
100
AcDbEntity
  8
0
  6
Continuous
 62
     7
100
AcDbLine
 10
-65.19943571481048
 20
80.59398080728273
 30
0.0
 11
-65.55298910540364
 21
80.94753419787598
 31
0.0
  0
LINE
  5
134
330
1F
100
AcDbEntity
  8
0
  6
Continuous
 62
     7
100
AcDbLine
 10
-65.55298910540364
 20
80.94753419787598
 30
0.0
 11
-64.98730368045449
 21
81.51321962282522
 31
0.0
  0
LINE
  5
135
330
1F
100
AcDbEntity
  8
0
  6
Continuous
 62
     7
100
AcDbLine
 10
-66.27514403255378
 20
78.3161909615222
 30
0.0
 11
-65.19943571481048
 21
79.39189927926556
 31
0.0
  0
LINE
  5
136
330
1F
100
AcDbEntity
  8
0
  6
Continuous
 62
     7
100
AcDbLine
 10
-60.79128816961539
 20
83.49294004327398
 30
0.0
 11
-67.27413088208999
 21
83.49294004327409
 31
0.0
  0
LINE
  5
137
330
1F
100
AcDbEntity
  8
0
  6
Continuous
 62
     7
100
AcDbLine
 10
-65.83270952585269
 20
77.84817898432136
 30
0.0
 11
-65.83270952585269
 21
77.82763515498068
 31
0.0
  0
LINE
  5
138
330
1F
100
AcDbEntity
  8
0
  6
Continuous
 62
     7
100
AcDbLine
 10
-65.93270952585266
 20
83.49294004327386
 30
0.0
 11
-65.28270952585268
 21
83.49294004327389
 31
0.0
  0
LINE
  5
139
330
1F
100
AcDbEntity
  8
0
  6
Continuous
 62
     7
100
AcDbLine
 10
-61.03270952585268
 20
91.99294004327406
 30
0.0
 11
-61.03270952585268
 21
94.49294004327409
 31
0.0
  0
LINE
  5
13A
330
1F
100
AcDbEntity
  8
0
  6
Continuous
 62
     7
100
AcDbLine
 10
-67.03270952585274
 20
91.99294004327406
 30
0.0
 11
-67.0327095258527
 21
94.49294004327395
 31
0.0
  0
LINE
  5
13B
330
1F
100
AcDbEntity
  8
0
  6
Continuous
 62
     7
100
AcDbLine
 10
-60.54403439125775
 20
91.99294004327403
 30
0.0
 11
-60.53270952585268
 21
91.9929400432736
 31
0.0
  0
LINE
  5
13C
330
1F
100
AcDbEntity
  8
0
  6
Continuous
 62
     7
100
AcDbLine
 10
-67.52138466044738
 20
91.99294004327403
 30
0.0
 11
-67.03270952585274
 21
91.99294004327406
 31
0.0
  0
LINE
  5
13D
330
1F
100
AcDbEntity
  8
0
  6
Continuous
 62
     7
100
AcDbLine
 10
-67.53270952585268
 20
91.9929400432736
 30
0.0
 11
-67.52138466044738
 21
91.99294004327403
 31
0.0
  0
LINE
  5
13E
330
1F
100
AcDbEntity
  8
0
  6
Continuous
 62
     7
100
AcDbLine
 10
-68.83270952585275
 20
91.99294004327412
 30
0.0
 11
-67.53270952585268
 21
91.9929400432736
 31
0.0
  0
LINE
  5
13F
330
1F
100
AcDbEntity
  8
0
  6
Continuous
 62
     7
100
AcDbLine
 10
-69.13361397711395
 20
91.992940043274
 30
0.0
 11
-68.83270952585275
 21
91.99294004327412
 31
0.0
  0
LINE
  5
140
330
1F
100
AcDbEntity
  8
0
  6
Continuous
 62
     7
100
AcDbLine
 10
-71.5327095258527
 20
91.99294004327379
 30
0.0
 11
-71.5327095258527
 21
94.492940043274
 31
0.0
  0
LINE
  5
141
330
1F
100
AcDbEntity
  8
0
  6
Continuous
 62
     7
100
AcDbLine
 10
-71.03270952585268
 20
91.99294004327369
 30
0.0
 11
-71.5327095258527
 21
91.99294004327379
 31
0.0
  0
LINE
  5
142
330
1F
100
AcDbEntity
  8
0
  6
Continuous
 62
     7
100
AcDbLine
 10
-69.13361397711395
 20
91.992940043274
 30
0.0
 11
-71.01396288182224
 21
91.99294004327383
 31
0.0
  0
LINE
  5
143
330
1F
100
AcDbEntity
  8
0
  6
Continuous
 62
     7
100
AcDbLine
 10
-71.01396288182224
 20
91.99294004327383
 30
0.0
 11
-71.03270952585268
 21
91.99294004327369
 31
0.0
  0
LINE
  5
144
330
1F
100
AcDbEntity
  8
0
  6
Continuous
 62
     7
100
AcDbLine
 10
-72.13270952585265
 20
91.99294004327378
 30
0.0
 11
-72.04770952585267
 21
91.99294004327369
 31
0.0
  0
LINE
  5
145
330
1F
100
AcDbEntity
  8
0
  6
Continuous
 62
     7
100
AcDbLine
 10
-72.04770952585267
 20
91.99294004327369
 30
0.0
 11
-71.92492264989698
 21
91.99294004327392
 31
0.0
  0
LINE
  5
146
330
1F
100
AcDbEntity
  8
0
  6
Continuous
 62
     7
100
AcDbLine
 10
-71.92492264989698
 20
91.99294004327392
 30
0.0
 11
-71.88270952585265
 21
91.99294004327372
 31
0.0
  0
LINE
  5
147
330
1F
100
AcDbEntity
  8
0
  6
Continuous
 62
     7
100
AcDbLine
 10
-71.88270952585265
 20
91.99294004327372
 30
0.0
 11
-71.79464647664855
 21
91.99294004327398
 31
0.0
  0
LINE
  5
148
330
1F
100
AcDbEntity
  8
0
  6
Continuous
 62
     7
100
AcDbLine
 10
-72.20657158923086
 20
91.99294004327398
 30
0.0
 11
-72.13270952585265
 21
91.99294004327378
 31
0.0
  0
LINE
  5
149
330
1F
100
AcDbEntity
  8
0
  6
Continuous
 62
     7
100
AcDbLine
 10
-72.47267483918449
 20
91.99294004327398
 30
0.0
 11
-72.33270952585269
 21
91.99294004327372
 31
0.0
  0
LINE
  5
14A
330
1F
100
AcDbEntity
  8
0
  6
Continuous
 62
     7
100
AcDbLine
 10
-72.33270952585269
 20
91.99294004327372
 30
0.0
 11
-72.20657158923086
 21
91.99294004327398
 31
0.0
  0
LINE
  5
14B
330
1F
100
AcDbEntity
  8
0
  6
Continuous
 62
     7
100
AcDbLine
 10
-74.53270952585268
 20
91.99294004327403
 30
0.0
 11
-73.76192231691329
 21
91.99294004327403
 31
0.0
  0
LINE
  5
14C
330
1F
100
AcDbEntity
  8
0
  6
Continuous
 62
     7
100
AcDbLine
 10
-73.68270952585266
 20
91.99294004327372
 30
0.0
 11
-73.53270952585268
 21
91.9929400432738
 31
0.0
  0
LINE
  5
14D
330
1F
100
AcDbEntity
  8
0
  6
Continuous
 62
     7
100
AcDbLine
 10
-73.76192231691329
 20
91.99294004327403
 30
0.0
 11
-73.68270952585266
 21
91.99294004327372
 31
0.0
  0
LINE
  5
14E
330
1F
100
AcDbEntity
  8
0
  6
Continuous
 62
     7
100
AcDbLine
 10
-73.33270952585269
 20
91.99294004327375
 30
0.0
 11
-73.03270952585268
 21
91.9929400432738
 31
0.0
  0
LINE
  5
14F
330
1F
100
AcDbEntity
  8
0
  6
Continuous
 62
     7
100
AcDbLine
 10
-73.53270952585268
 20
91.9929400432738
 30
0.0
 11
-73.51770952585264
 21
91.99294004327369
 31
0.0
  0
LINE
  5
150
330
1F
100
AcDbEntity
  8
0
  6
Continuous
 62
     7
100
AcDbLine
 10
-73.51770952585264
 20
91.99294004327369
 30
0.0
 11
-73.36094312231859
 21
91.99294004327403
 31
0.0
  0
LINE
  5
151
330
1F
100
AcDbEntity
  8
0
  6
Continuous
 62
     7
100
AcDbLine
 10
-73.36094312231859
 20
91.99294004327403
 30
0.0
 11
-73.33270952585269
 21
91.99294004327375
 31
0.0
  0
LINE
  5
152
330
1F
100
AcDbEntity
  8
0
  6
Continuous
 62
     7
100
AcDbLine
 10
-72.84190011088464
 20
91.99294004327363
 30
0.0
 11
-72.63270952585265
 21
91.99294004327372
 31
0.0
  0
LINE
  5
153
330
1F
100
AcDbEntity
  8
0
  6
Continuous
 62
     7
100
AcDbLine
 10
-73.01460246462665
 20
91.99294004327366
 30
0.0
 11
-72.93270952585266
 21
91.99294004327369
 31
0.0
  0
LINE
  5
154
330
1F
100
AcDbEntity
  8
0
  6
Continuous
 62
     7
100
AcDbLine
 10
-73.03270952585268
 20
91.9929400432738
 30
0.0
 11
-73.01460246462665
 21
91.99294004327366
 31
0.0
  0
LINE
  5
155
330
1F
100
AcDbEntity
  8
0
  6
Continuous
 62
     7
100
AcDbLine
 10
-72.63270952585265
 20
91.99294004327372
 30
0.0
 11
-72.47267483918449
 21
91.99294004327398
 31
0.0
  0
LINE
  5
156
330
1F
100
AcDbEntity
  8
0
  6
Continuous
 62
     7
100
AcDbLine
 10
-72.93270952585266
 20
91.99294004327369
 30
0.0
 11
-72.84190011088464
 21
91.99294004327363
 31
0.0
  0
LINE
  5
157
330
1F
100
AcDbEntity
  8
0
  6
Continuous
 62
     7
100
AcDbLine
 10
-71.5327095258527
 20
91.99294004327379
 30
0.0
 11
-71.79464647664855
 21
91.99294004327398
 31
0.0
  0
LINE
  5
158
330
1F
100
AcDbEntity
  8
0
  6
Continuous
 62
     7
100
AcDbLine
 10
-74.53270952585268
 20
94.49294004327406
 30
0.0
 11
-53.5327095258527
 21
94.4929400432737
 31
0.0
  0
LINE
  5
159
330
1F
100
AcDbEntity
  8
0
  6
Continuous
 62
     7
100
AcDbLine
 10
-68.83270952585275
 20
91.99294004327412
 30
0.0
 11
-68.83270952585275
 21
94.49294004327415
 31
0.0
  0
LINE
  5
15A
330
1F
100
AcDbEntity
  8
0
  6
Continuous
 62
     7
100
AcDbLine
 10
-55.85884746247439
 20
91.99294004327398
 30
0.0
 11
-55.73270952585256
 21
91.99294004327372
 31
0.0
  0
LINE
  5
15B
330
1F
100
AcDbEntity
  8
0
  6
Continuous
 62
     7
100
AcDbLine
 10
-56.53270952585268
 20
91.99294004327412
 30
0.0
 11
-56.27077257505664
 21
91.99294004327398
 31
0.0
  0
LINE
  5
15C
330
1F
100
AcDbEntity
  8
0
  6
Continuous
 62
     7
100
AcDbLine
 10
-55.93270952585266
 20
91.99294004327378
 30
0.0
 11
-55.85884746247439
 21
91.99294004327398
 31
0.0
  0
LINE
  5
15D
330
1F
100
AcDbEntity
  8
0
  6
Continuous
 62
     7
100
AcDbLine
 10
-56.27077257505664
 20
91.99294004327398
 30
0.0
 11
-56.18270952585266
 21
91.99294004327369
 31
0.0
  0
LINE
  5
15E
330
1F
100
AcDbEntity
  8
0
  6
Continuous
 62
     7
100
AcDbLine
 10
-56.14049640180849
 20
91.99294004327392
 30
0.0
 11
-56.01770952585264
 21
91.99294004327369
 31
0.0
  0
LINE
  5
15F
330
1F
100
AcDbEntity
  8
0
  6
Continuous
 62
     7
100
AcDbLine
 10
-56.18270952585266
 20
91.99294004327369
 30
0.0
 11
-56.14049640180849
 21
91.99294004327392
 31
0.0
  0
LINE
  5
160
330
1F
100
AcDbEntity
  8
0
  6
Continuous
 62
     7
100
AcDbLine
 10
-56.01770952585264
 20
91.99294004327369
 30
0.0
 11
-55.93270952585266
 21
91.99294004327378
 31
0.0
  0
LINE
  5
161
330
1F
100
AcDbEntity
  8
0
  6
Continuous
 62
     7
100
AcDbLine
 10
-59.23270952585256
 20
91.99294004327412
 30
0.0
 11
-59.23270952585256
 21
94.49294004327415
 31
0.0
  0
LINE
  5
162
330
1F
100
AcDbEntity
  8
0
  6
Continuous
 62
     7
100
AcDbLine
 10
-59.23270952585256
 20
91.99294004327412
 30
0.0
 11
-58.93180507459135
 21
91.992940043274
 31
0.0
  0
LINE
  5
163
330
1F
100
AcDbEntity
  8
0
  6
Continuous
 62
     7
100
AcDbLine
 10
-60.53270952585268
 20
91.9929400432736
 30
0.0
 11
-59.23270952585256
 21
91.99294004327412
 31
0.0
  0
LINE
  5
164
330
1F
100
AcDbEntity
  8
0
  6
Continuous
 62
     7
100
AcDbLine
 10
-58.93180507459135
 20
91.992940043274
 30
0.0
 11
-57.05145616988318
 21
91.99294004327383
 31
0.0
  0
LINE
  5
165
330
1F
100
AcDbEntity
  8
0
  6
Continuous
 62
     7
100
AcDbLine
 10
-61.03270952585268
 20
91.99294004327406
 30
0.0
 11
-60.54403439125775
 21
91.99294004327403
 31
0.0
  0
LINE
  5
166
330
1F
100
AcDbEntity
  8
0
  6
Continuous
 62
     7
100
AcDbLine
 10
-57.03270952585268
 20
91.99294004327369
 30
0.0
 11
-56.53270952585268
 21
91.99294004327412
 31
0.0
  0
LINE
  5
167
330
1F
100
AcDbEntity
  8
0
  6
Continuous
 62
     7
100
AcDbLine
 10
-57.05145616988318
 20
91.99294004327383
 30
0.0
 11
-57.03270952585268
 21
91.99294004327369
 31
0.0
  0
LINE
  5
168
330
1F
100
AcDbEntity
  8
0
  6
Continuous
 62
     7
100
AcDbLine
 10
-62.13270952585265
 20
83.49294004327389
 30
0.0
 11
-62.78270952585268
 21
83.49294004327389
 31
0.0
  0
LINE
  5
169
330
1F
100
AcDbEntity
  8
0
  6
Continuous
 62
     7
100
AcDbLine
 10
-55.03270952585268
 20
91.9929400432738
 30
0.0
 11
-54.73270952585267
 21
91.99294004327389
 31
0.0
  0
LINE
  5
16A
330
1F
100
AcDbEntity
  8
0
  6
Continuous
 62
     7
100
AcDbLine
 10
-54.73270952585267
 20
91.99294004327389
 30
0.0
 11
-54.70447592938677
 21
91.99294004327403
 31
0.0
  0
LINE
  5
16B
330
1F
100
AcDbEntity
  8
0
  6
Continuous
 62
     7
100
AcDbLine
 10
-55.59274421252098
 20
91.99294004327398
 30
0.0
 11
-55.43270952585266
 21
91.99294004327366
 31
0.0
  0
LINE
  5
16C
330
1F
100
AcDbEntity
  8
0
  6
Continuous
 62
     7
100
AcDbLine
 10
-55.05081658707866
 20
91.99294004327366
 30
0.0
 11
-55.03270952585268
 21
91.9929400432738
 31
0.0
  0
LINE
  5
16D
330
1F
100
AcDbEntity
  8
0
  6
Continuous
 62
     7
100
AcDbLine
 10
-55.43270952585266
 20
91.99294004327366
 30
0.0
 11
-55.05081658707866
 21
91.99294004327366
 31
0.0
  0
LINE
  5
16E
330
1F
100
AcDbEntity
  8
0
  6
Continuous
 62
     7
100
AcDbLine
 10
-55.73270952585256
 20
91.99294004327372
 30
0.0
 11
-55.59274421252098
 21
91.99294004327398
 31
0.0
  0
LINE
  5
16F
330
1F
100
AcDbEntity
  8
0
  6
Continuous
 62
     7
100
AcDbLine
 10
-56.53270952585268
 20
91.99294004327412
 30
0.0
 11
-56.53270952585268
 21
94.49294004327415
 31
0.0
  0
LINE
  5
170
330
1F
100
AcDbEntity
  8
0
  6
Continuous
 62
     7
100
AcDbLine
 10
-54.70447592938677
 20
91.99294004327403
 30
0.0
 11
-54.54770952585267
 21
91.99294004327369
 31
0.0
  0
LINE
  5
171
330
1F
100
AcDbEntity
  8
0
  6
Continuous
 62
     7
100
AcDbLine
 10
-54.54770952585267
 20
91.99294004327369
 30
0.0
 11
-54.53270952585268
 21
91.99294004327395
 31
0.0
  0
LINE
  5
172
330
1F
100
AcDbEntity
  8
0
  6
Continuous
 62
     7
100
AcDbLine
 10
-53.5327095258527
 20
91.99294004327494
 30
0.0
 11
-53.5327095258527
 21
94.4929400432737
 31
0.0
  0
LINE
  5
173
330
1F
100
AcDbEntity
  8
0
  6
Continuous
 62
     7
100
AcDbLine
 10
-54.53270952585268
 20
91.99294004327395
 30
0.0
 11
-54.38270952585265
 21
91.99294004327369
 31
0.0
  0
LINE
  5
174
330
1F
100
AcDbEntity
  8
0
  6
Continuous
 62
     7
100
AcDbLine
 10
-54.38270952585265
 20
91.99294004327369
 30
0.0
 11
-54.30349673479208
 21
91.99294004327403
 31
0.0
  0
LINE
  5
175
330
1F
100
AcDbEntity
  8
0
  6
Continuous
 62
     7
100
AcDbLine
 10
-54.30349673479208
 20
91.99294004327403
 30
0.0
 11
-53.5327095258527
 21
91.99294004327494
 31
0.0
  0
LINE
  5
176
330
1F
100
AcDbEntity
  8
0
  6
Continuous
 62
     7
100
AcDbLine
 10
-68.83270952585269
 20
75.1929400432741
 30
0.0
 11
-67.0327095258527
 21
76.99294004327398
 31
0.0
  0
LINE
  5
177
330
1F
100
AcDbEntity
  8
0
  6
Continuous
 62
     7
100
AcDbLine
 10
-67.0327095258527
 20
75.19294004327399
 30
0.0
 11
-67.0327095258527
 21
69.14294004327398
 31
0.0
  0
LINE
  5
178
330
1F
100
AcDbEntity
  8
0
  6
Continuous
 62
     7
100
AcDbLine
 10
-68.83270952585269
 20
75.1929400432741
 30
0.0
 11
-67.0327095258527
 21
75.19294004327399
 31
0.0
  0
LINE
  5
179
330
1F
100
AcDbEntity
  8
0
  6
Continuous
 62
     7
100
AcDbLine
 10
-67.03270952585268
 20
62.99294004327409
 30
0.0
 11
-71.5327095258527
 21
62.99294004327398
 31
0.0
  0
LINE
  5
17A
330
1F
100
AcDbEntity
  8
0
  6
Continuous
 62
     7
100
AcDbLine
 10
-67.03270952585268
 20
62.99294004327409
 30
0.0
 11
-67.0327095258527
 21
66.842940043274
 31
0.0
  0
LINE
  5
17B
330
1F
100
AcDbEntity
  8
0
  6
Continuous
 62
     7
100
AcDbLine
 10
-74.53270952585268
 20
62.99294004327381
 30
0.0
 11
-74.53270952585268
 21
66.84294004327457
 31
0.0
  0
LINE
  5
17C
330
1F
100
AcDbEntity
  8
0
  6
Continuous
 62
     7
100
AcDbLine
 10
-71.5327095258527
 20
66.842940043274
 30
0.0
 11
-71.5327095258527
 21
62.99294004327398
 31
0.0
  0
LINE
  5
17D
330
1F
100
AcDbEntity
  8
0
  6
Continuous
 62
     7
100
AcDbLine
 10
-73.78270952585268
 20
66.84294004327457
 30
0.0
 11
-73.78270952585268
 21
62.99294004327403
 31
0.0
  0
LINE
  5
17E
330
1F
100
AcDbEntity
  8
0
  6
Continuous
 62
     7
100
AcDbLine
 10
-74.53270952585268
 20
62.99294004327381
 30
0.0
 11
-73.78270952585268
 21
62.99294004327403
 31
0.0
  0
LINE
  5
17F
330
1F
100
AcDbEntity
  8
0
  6
Continuous
 62
     7
100
AcDbLine
 10
-73.78270952585268
 20
62.99294004327403
 30
0.0
 11
-71.5327095258527
 21
62.99294004327398
 31
0.0
  0
LINE
  5
180
330
1F
100
AcDbEntity
  8
0
  6
Continuous
 62
     7
100
AcDbLine
 10
-60.64403439125789
 20
91.99294004327406
 30
0.0
 11
-60.54403439125775
 21
91.99294004327403
 31
0.0
  0
LINE
  5
181
330
1F
100
AcDbEntity
  8
0
  6
Continuous
 62
     7
100
AcDbLine
 10
-60.54403439125775
 20
91.99294004327403
 30
0.0
 11
-60.53270952585268
 21
91.9929400432736
 31
0.0
  0
LINE
  5
182
330
1F
100
AcDbEntity
  8
0
  6
Continuous
 62
     7
100
AcDbLine
 10
-60.53270952585268
 20
91.9929400432736
 30
0.0
 11
-59.64403439125789
 21
91.99294004327403
 31
0.0
  0
LINE
  5
183
330
1F
100
AcDbEntity
  8
0
  6
Continuous
 62
     7
100
AcDbLine
 10
-67.42138466044747
 20
91.99294004327406
 30
0.0
 11
-67.03270952585274
 21
91.99294004327406
 31
0.0
  0
LINE
  5
184
330
1F
100
AcDbEntity
  8
0
  6
Continuous
 62
     7
100
AcDbLine
 10
-67.52138466044738
 20
91.99294004327403
 30
0.0
 11
-67.42138466044747
 21
91.99294004327406
 31
0.0
  0
LINE
  5
185
330
1F
100
AcDbEntity
  8
0
  6
Continuous
 62
     7
100
AcDbLine
 10
-67.53270952585268
 20
91.9929400432736
 30
0.0
 11
-67.52138466044738
 21
91.99294004327403
 31
0.0
  0
LINE
  5
186
330
1F
100
AcDbEntity
  8
0
  6
Continuous
 62
     7
100
AcDbLine
 10
-68.83270952585275
 20
91.99294004327412
 30
0.0
 11
-68.42138466044747
 21
91.99294004327403
 31
0.0
  0
LINE
  5
187
330
1F
100
AcDbEntity
  8
0
  6
Continuous
 62
     7
100
AcDbLine
 10
-68.42138466044747
 20
91.99294004327403
 30
0.0
 11
-67.53270952585268
 21
91.9929400432736
 31
0.0
  0
LINE
  5
188
330
1F
100
AcDbEntity
  8
0
  6
Continuous
 62
     7
100
AcDbLine
 10
-71.03270952585268
 20
91.99294004327369
 30
0.0
 11
-71.5327095258527
 21
91.99294004327379
 31
0.0
  0
LINE
  5
189
330
1F
100
AcDbEntity
  8
0
  6
Continuous
 62
     7
100
AcDbLine
 10
-68.83270952585275
 20
91.99294004327412
 30
0.0
 11
-71.01396288182224
 21
91.99294004327383
 31
0.0
  0
LINE
  5
18A
330
1F
100
AcDbEntity
  8
0
  6
Continuous
 62
     7
100
AcDbLine
 10
-71.01396288182224
 20
91.99294004327383
 30
0.0
 11
-71.03270952585268
 21
91.99294004327369
 31
0.0
  0
LINE
  5
18B
330
1F
100
AcDbEntity
  8
0
  6
Continuous
 62
     7
100
AcDbLine
 10
-72.13270952585265
 20
91.99294004327378
 30
0.0
 11
-72.04770952585267
 21
91.99294004327369
 31
0.0
  0
LINE
  5
18C
330
1F
100
AcDbEntity
  8
0
  6
Continuous
 62
     7
100
AcDbLine
 10
-72.04770952585267
 20
91.99294004327369
 30
0.0
 11
-71.92492264989698
 21
91.99294004327392
 31
0.0
  0
LINE
  5
18D
330
1F
100
AcDbEntity
  8
0
  6
Continuous
 62
     7
100
AcDbLine
 10
-71.92492264989698
 20
91.99294004327392
 30
0.0
 11
-71.88270952585265
 21
91.99294004327372
 31
0.0
  0
LINE
  5
18E
330
1F
100
AcDbEntity
  8
0
  6
Continuous
 62
     7
100
AcDbLine
 10
-71.88270952585265
 20
91.99294004327372
 30
0.0
 11
-71.79464647664855
 21
91.99294004327398
 31
0.0
  0
LINE
  5
18F
330
1F
100
AcDbEntity
  8
0
  6
Continuous
 62
     7
100
AcDbLine
 10
-72.20657158923086
 20
91.99294004327398
 30
0.0
 11
-72.13270952585265
 21
91.99294004327378
 31
0.0
  0
LINE
  5
190
330
1F
100
AcDbEntity
  8
0
  6
Continuous
 62
     7
100
AcDbLine
 10
-73.77322123359545
 20
91.99294004327403
 30
0.0
 11
-73.76192231691329
 21
91.99294004327403
 31
0.0
  0
LINE
  5
191
330
1F
100
AcDbEntity
  8
0
  6
Continuous
 62
     7
100
AcDbLine
 10
-72.47267483918449
 20
91.99294004327398
 30
0.0
 11
-72.33270952585269
 21
91.99294004327372
 31
0.0
  0
LINE
  5
192
330
1F
100
AcDbEntity
  8
0
  6
Continuous
 62
     7
100
AcDbLine
 10
-72.33270952585269
 20
91.99294004327372
 30
0.0
 11
-72.20657158923086
 21
91.99294004327398
 31
0.0
  0
LINE
  5
193
330
1F
100
AcDbEntity
  8
0
  6
Continuous
 62
     7
100
AcDbLine
 10
-74.53270952585268
 20
91.99294004327403
 30
0.0
 11
-73.77322123359545
 21
91.99294004327403
 31
0.0
  0
LINE
  5
194
330
1F
100
AcDbEntity
  8
0
  6
Continuous
 62
     7
100
AcDbLine
 10
-73.68270952585266
 20
91.99294004327372
 30
0.0
 11
-73.53270952585268
 21
91.9929400432738
 31
0.0
  0
LINE
  5
195
330
1F
100
AcDbEntity
  8
0
  6
Continuous
 62
     7
100
AcDbLine
 10
-73.76192231691329
 20
91.99294004327403
 30
0.0
 11
-73.68270952585266
 21
91.99294004327372
 31
0.0
  0
LINE
  5
196
330
1F
100
AcDbEntity
  8
0
  6
Continuous
 62
     7
100
AcDbLine
 10
-73.33270952585269
 20
91.99294004327375
 30
0.0
 11
-73.03270952585268
 21
91.9929400432738
 31
0.0
  0
LINE
  5
197
330
1F
100
AcDbEntity
  8
0
  6
Continuous
 62
     7
100
AcDbLine
 10
-73.53270952585268
 20
91.9929400432738
 30
0.0
 11
-73.51770952585264
 21
91.99294004327369
 31
0.0
  0
LINE
  5
198
330
1F
100
AcDbEntity
  8
0
  6
Continuous
 62
     7
100
AcDbLine
 10
-73.51770952585264
 20
91.99294004327369
 30
0.0
 11
-73.36094312231859
 21
91.99294004327403
 31
0.0
  0
LINE
  5
199
330
1F
100
AcDbEntity
  8
0
  6
Continuous
 62
     7
100
AcDbLine
 10
-73.36094312231859
 20
91.99294004327403
 30
0.0
 11
-73.33270952585269
 21
91.99294004327375
 31
0.0
  0
LINE
  5
19A
330
1F
100
AcDbEntity
  8
0
  6
Continuous
 62
     7
100
AcDbLine
 10
-72.84190011088464
 20
91.99294004327363
 30
0.0
 11
-72.63270952585265
 21
91.99294004327372
 31
0.0
  0
LINE
  5
19B
330
1F
100
AcDbEntity
  8
0
  6
Continuous
 62
     7
100
AcDbLine
 10
-73.01460246462665
 20
91.99294004327366
 30
0.0
 11
-72.93270952585266
 21
91.99294004327369
 31
0.0
  0
LINE
  5
19C
330
1F
100
AcDbEntity
  8
0
  6
Continuous
 62
     7
100
AcDbLine
 10
-73.03270952585268
 20
91.9929400432738
 30
0.0
 11
-73.01460246462665
 21
91.99294004327366
 31
0.0
  0
LINE
  5
19D
330
1F
100
AcDbEntity
  8
0
  6
Continuous
 62
     7
100
AcDbLine
 10
-72.63270952585265
 20
91.99294004327372
 30
0.0
 11
-72.47267483918449
 21
91.99294004327398
 31
0.0
  0
LINE
  5
19E
330
1F
100
AcDbEntity
  8
0
  6
Continuous
 62
     7
100
AcDbLine
 10
-72.93270952585266
 20
91.99294004327369
 30
0.0
 11
-72.84190011088464
 21
91.99294004327363
 31
0.0
  0
LINE
  5
19F
330
1F
100
AcDbEntity
  8
0
  6
Continuous
 62
     7
100
AcDbLine
 10
-71.5327095258527
 20
91.99294004327379
 30
0.0
 11
-71.79464647664855
 21
91.99294004327398
 31
0.0
  0
LINE
  5
1A0
330
1F
100
AcDbEntity
  8
0
  6
Continuous
 62
     7
100
AcDbLine
 10
-71.5327095258527
 20
91.99294004327379
 30
0.0
 11
-71.5327095258527
 21
69.14294004327398
 31
0.0
  0
LINE
  5
1A1
330
1F
100
AcDbEntity
  8
0
  6
Continuous
 62
     7
100
AcDbLine
 10
-67.42138466044747
 20
91.99294004327406
 30
0.0
 11
-67.30342020397137
 21
91.78861961117015
 31
0.0
  0
LINE
  5
1A2
330
1F
100
AcDbEntity
  8
0
  6
Continuous
 62
     7
100
AcDbLine
 10
-60.76199884773399
 20
91.78861961117018
 30
0.0
 11
-60.64403439125789
 21
91.99294004327406
 31
0.0
  0
LINE
  5
1A3
330
1F
100
AcDbEntity
  8
0
  6
Continuous
 62
     7
100
AcDbLine
 10
-54.29219781810986
 20
91.99294004327403
 30
0.0
 11
-53.5327095258527
 21
91.99294004327494
 31
0.0
  0
LINE
  5
1A4
330
1F
100
AcDbEntity
  8
0
  6
Continuous
 62
     7
100
AcDbLine
 10
-55.85884746247439
 20
91.99294004327398
 30
0.0
 11
-55.73270952585256
 21
91.99294004327372
 31
0.0
  0
LINE
  5
1A5
330
1F
100
AcDbEntity
  8
0
  6
Continuous
 62
     7
100
AcDbLine
 10
-56.53270952585268
 20
91.99294004327412
 30
0.0
 11
-56.27077257505664
 21
91.99294004327398
 31
0.0
  0
LINE
  5
1A6
330
1F
100
AcDbEntity
  8
0
  6
Continuous
 62
     7
100
AcDbLine
 10
-55.93270952585266
 20
91.99294004327378
 30
0.0
 11
-55.85884746247439
 21
91.99294004327398
 31
0.0
  0
LINE
  5
1A7
330
1F
100
AcDbEntity
  8
0
  6
Continuous
 62
     7
100
AcDbLine
 10
-56.27077257505664
 20
91.99294004327398
 30
0.0
 11
-56.18270952585266
 21
91.99294004327369
 31
0.0
  0
LINE
  5
1A8
330
1F
100
AcDbEntity
  8
0
  6
Continuous
 62
     7
100
AcDbLine
 10
-56.14049640180849
 20
91.99294004327392
 30
0.0
 11
-56.01770952585264
 21
91.99294004327369
 31
0.0
  0
LINE
  5
1A9
330
1F
100
AcDbEntity
  8
0
  6
Continuous
 62
     7
100
AcDbLine
 10
-56.18270952585266
 20
91.99294004327369
 30
0.0
 11
-56.14049640180849
 21
91.99294004327392
 31
0.0
  0
LINE
  5
1AA
330
1F
100
AcDbEntity
  8
0
  6
Continuous
 62
     7
100
AcDbLine
 10
-56.01770952585264
 20
91.99294004327369
 30
0.0
 11
-55.93270952585266
 21
91.99294004327378
 31
0.0
  0
LINE
  5
1AB
330
1F
100
AcDbEntity
  8
0
  6
Continuous
 62
     7
100
AcDbLine
 10
-61.0327095258527
 20
76.99294004327398
 30
0.0
 11
-59.23270952585268
 21
75.19294004327399
 31
0.0
  0
LINE
  5
1AC
330
1F
100
AcDbEntity
  8
0
  6
Continuous
 62
     7
100
AcDbLine
 10
-59.64403439125789
 20
91.99294004327403
 30
0.0
 11
-59.23270952585256
 21
91.99294004327412
 31
0.0
  0
LINE
  5
1AD
330
1F
100
AcDbEntity
  8
0
  6
Continuous
 62
     7
100
AcDbLine
 10
-59.23270952585256
 20
91.99294004327412
 30
0.0
 11
-57.05145616988318
 21
91.99294004327383
 31
0.0
  0
LINE
  5
1AE
330
1F
100
AcDbEntity
  8
0
  6
Continuous
 62
     7
100
AcDbLine
 10
-61.03270952585268
 20
91.99294004327406
 30
0.0
 11
-60.64403439125789
 21
91.99294004327406
 31
0.0
  0
LINE
  5
1AF
330
1F
100
AcDbEntity
  8
0
  6
Continuous
 62
     7
100
AcDbLine
 10
-60.76199884773399
 20
91.78861961117018
 30
0.0
 11
-60.76199884773412
 21
76.99294004327398
 31
0.0
  0
LINE
  5
1B0
330
1F
100
AcDbEntity
  8
0
  6
Continuous
 62
     7
100
AcDbLine
 10
-59.23270952585268
 20
75.19294004327399
 30
0.0
 11
-59.23270952585256
 21
91.99294004327412
 31
0.0
  0
LINE
  5
1B1
330
1F
100
AcDbEntity
  8
0
  6
Continuous
 62
     7
100
AcDbLine
 10
-61.0327095258527
 20
75.19294004327399
 30
0.0
 11
-59.23270952585268
 21
75.19294004327399
 31
0.0
  0
LINE
  5
1B2
330
1F
100
AcDbEntity
  8
0
  6
Continuous
 62
     7
100
AcDbLine
 10
-61.0327095258527
 20
75.19294004327399
 30
0.0
 11
-61.0327095258527
 21
75.94294004327396
 31
0.0
  0
LINE
  5
1B3
330
1F
100
AcDbEntity
  8
0
  6
Continuous
 62
     7
100
AcDbLine
 10
-61.0327095258527
 20
75.19294004327399
 30
0.0
 11
-61.0327095258527
 21
69.14294004327398
 31
0.0
  0
LINE
  5
1B4
330
1F
100
AcDbEntity
  8
0
  6
Continuous
 62
     7
100
AcDbLine
 10
-57.03270952585268
 20
91.99294004327369
 30
0.0
 11
-56.53270952585268
 21
91.99294004327412
 31
0.0
  0
LINE
  5
1B5
330
1F
100
AcDbEntity
  8
0
  6
Continuous
 62
     7
100
AcDbLine
 10
-57.05145616988318
 20
91.99294004327383
 30
0.0
 11
-57.03270952585268
 21
91.99294004327369
 31
0.0
  0
LINE
  5
1B6
330
1F
100
AcDbEntity
  8
0
  6
Continuous
 62
     7
100
AcDbLine
 10
-56.53270952585268
 20
62.99294004327409
 30
0.0
 11
-61.0327095258527
 21
62.99294004327398
 31
0.0
  0
LINE
  5
1B7
330
1F
100
AcDbEntity
  8
0
  6
Continuous
 62
     7
100
AcDbLine
 10
-61.03270952585268
 20
66.84294004327411
 30
0.0
 11
-61.0327095258527
 21
62.99294004327398
 31
0.0
  0
LINE
  5
1B8
330
1F
100
AcDbEntity
  8
0
  6
Continuous
 62
     7
100
AcDbLine
 10
-68.83270952585275
 20
91.99294004327412
 30
0.0
 11
-68.83270952585269
 21
75.1929400432741
 31
0.0
  0
LINE
  5
1B9
330
1F
100
AcDbEntity
  8
0
  6
Continuous
 62
     7
100
AcDbLine
 10
-67.30342020397137
 20
91.78861961117015
 30
0.0
 11
-67.30342020397137
 21
76.99294004327409
 31
0.0
  0
LINE
  5
1BA
330
1F
100
AcDbEntity
  8
0
  6
Continuous
 62
     7
100
AcDbLine
 10
-67.30342020397137
 20
76.99294004327409
 30
0.0
 11
-67.0327095258527
 21
76.99294004327398
 31
0.0
  0
LINE
  5
1BB
330
1F
100
AcDbEntity
  8
0
  6
Continuous
 62
     7
100
AcDbLine
 10
-67.0327095258527
 20
75.19294004327399
 30
0.0
 11
-67.0327095258527
 21
75.94294004327396
 31
0.0
  0
LINE
  5
1BC
330
1F
100
AcDbEntity
  8
0
  6
Continuous
 62
     7
100
AcDbLine
 10
-67.03270952585268
 20
62.99294004327409
 30
0.0
 11
-61.0327095258527
 21
62.99294004327398
 31
0.0
  0
LINE
  5
1BD
330
1F
100
AcDbEntity
  8
0
  6
Continuous
 62
     7
100
AcDbLine
 10
-62.55186157014168
 20
77.49953086464605
 30
0.0
 11
-62.55186157014168
 21
77.4929400432746
 31
0.0
  0
LINE
  5
1BE
330
1F
100
AcDbEntity
  8
0
  6
Continuous
 62
     7
100
AcDbLine
 10
-61.0327095258527
 20
76.99294004327398
 30
0.0
 11
-60.76199884773412
 21
76.99294004327398
 31
0.0
  0
LINE
  5
1BF
330
1F
100
AcDbEntity
  8
0
  6
Continuous
 62
     7
100
AcDbLine
 10
-67.0327095258527
 20
76.99294004327398
 30
0.0
 11
-61.0327095258527
 21
76.99294004327398
 31
0.0
  0
LINE
  5
1C0
330
1F
100
AcDbEntity
  8
0
  6
Continuous
 62
     7
100
AcDbLine
 10
-61.0327095258527
 20
75.94294004327396
 30
0.0
 11
-67.0327095258527
 21
75.94294004327396
 31
0.0
  0
LINE
  5
1C1
330
1F
100
AcDbEntity
  8
0
  6
Continuous
 62
     7
100
AcDbLine
 10
-55.43270952585266
 20
91.99294004327366
 30
0.0
 11
-55.22351894082078
 21
91.99294004327363
 31
0.0
  0
LINE
  5
1C2
330
1F
100
AcDbEntity
  8
0
  6
Continuous
 62
     7
100
AcDbLine
 10
-55.03270952585268
 20
91.9929400432738
 30
0.0
 11
-54.73270952585267
 21
91.99294004327389
 31
0.0
  0
LINE
  5
1C3
330
1F
100
AcDbEntity
  8
0
  6
Continuous
 62
     7
100
AcDbLine
 10
-54.73270952585267
 20
91.99294004327389
 30
0.0
 11
-54.70447592938677
 21
91.99294004327403
 31
0.0
  0
LINE
  5
1C4
330
1F
100
AcDbEntity
  8
0
  6
Continuous
 62
     7
100
AcDbLine
 10
-55.59274421252098
 20
91.99294004327398
 30
0.0
 11
-55.43270952585266
 21
91.99294004327366
 31
0.0
  0
LINE
  5
1C5
330
1F
100
AcDbEntity
  8
0
  6
Continuous
 62
     7
100
AcDbLine
 10
-55.05081658707866
 20
91.99294004327366
 30
0.0
 11
-55.03270952585268
 21
91.9929400432738
 31
0.0
  0
LINE
  5
1C6
330
1F
100
AcDbEntity
  8
0
  6
Continuous
 62
     7
100
AcDbLine
 10
-55.22351894082078
 20
91.99294004327363
 30
0.0
 11
-55.05081658707866
 21
91.99294004327366
 31
0.0
  0
LINE
  5
1C7
330
1F
100
AcDbEntity
  8
0
  6
Continuous
 62
     7
100
AcDbLine
 10
-55.73270952585256
 20
91.99294004327372
 30
0.0
 11
-55.59274421252098
 21
91.99294004327398
 31
0.0
  0
LINE
  5
1C8
330
1F
100
AcDbEntity
  8
0
  6
Continuous
 62
     7
100
AcDbLine
 10
-54.70447592938677
 20
91.99294004327403
 30
0.0
 11
-54.54770952585267
 21
91.99294004327369
 31
0.0
  0
LINE
  5
1C9
330
1F
100
AcDbEntity
  8
0
  6
Continuous
 62
     7
100
AcDbLine
 10
-54.54770952585267
 20
91.99294004327369
 30
0.0
 11
-54.53270952585268
 21
91.99294004327395
 31
0.0
  0
LINE
  5
1CA
330
1F
100
AcDbEntity
  8
0
  6
Continuous
 62
     7
100
AcDbLine
 10
-54.53270952585268
 20
91.99294004327395
 30
0.0
 11
-54.38270952585265
 21
91.99294004327369
 31
0.0
  0
LINE
  5
1CB
330
1F
100
AcDbEntity
  8
0
  6
Continuous
 62
     7
100
AcDbLine
 10
-54.38270952585265
 20
91.99294004327369
 30
0.0
 11
-54.30349673479208
 21
91.99294004327403
 31
0.0
  0
LINE
  5
1CC
330
1F
100
AcDbEntity
  8
0
  6
Continuous
 62
     7
100
AcDbLine
 10
-54.30349673479208
 20
91.99294004327403
 30
0.0
 11
-54.29219781810986
 21
91.99294004327403
 31
0.0
  0
LINE
  5
1CD
330
1F
100
AcDbEntity
  8
0
  6
Continuous
 62
     7
100
AcDbLine
 10
-56.53270952585268
 20
91.99294004327412
 30
0.0
 11
-56.5327095258527
 21
69.14294004327398
 31
0.0
  0
LINE
  5
1CE
330
1F
100
AcDbEntity
  8
0
  6
Continuous
 62
     7
100
AcDbLine
 10
-56.53270952585268
 20
62.99294004327409
 30
0.0
 11
-56.5327095258527
 21
66.842940043274
 31
0.0
  0
LINE
  5
1CF
330
1F
100
AcDbEntity
  8
0
  6
Continuous
 62
     7
100
AcDbLine
 10
-53.53270952585268
 20
62.99294004327398
 30
0.0
 11
-54.28270952585268
 21
62.99294004327398
 31
0.0
  0
LINE
  5
1D0
330
1F
100
AcDbEntity
  8
0
  6
Continuous
 62
     7
100
AcDbLine
 10
-54.28270952585268
 20
62.99294004327398
 30
0.0
 11
-54.2827095258527
 21
66.84294004327442
 31
0.0
  0
LINE
  5
1D1
330
1F
100
AcDbEntity
  8
0
  6
Continuous
 62
     7
100
AcDbLine
 10
-53.53270952585268
 20
62.99294004327398
 30
0.0
 11
-53.53270952585268
 21
66.84294004327457
 31
0.0
  0
LINE
  5
1D2
330
1F
100
AcDbEntity
  8
0
  6
Continuous
 62
     7
100
AcDbLine
 10
-56.53270952585268
 20
62.99294004327409
 30
0.0
 11
-54.28270952585268
 21
62.99294004327398
 31
0.0
  0
LINE
  5
1D3
330
1F
100
AcDbEntity
  8
0
  6
Continuous
 62
     7
100
AcDbLine
 10
-21.78270952585282
 20
94.49294004327395
 30
0.0
 11
-21.78270952585277
 21
91.99294004327389
 31
0.0
  0
LINE
  5
1D4
330
1F
100
AcDbEntity
  8
0
  6
Continuous
 62
     7
100
AcDbLine
 10
-24.98270952585253
 20
82.99294004327383
 30
0.0
 11
-24.98270952585276
 21
91.99294004327383
 31
0.0
  0
LINE
  5
1D5
330
1F
100
AcDbEntity
  8
0
  6
Continuous
 62
     7
100
AcDbLine
 10
-24.98270952585276
 20
91.99294004327383
 30
0.0
 11
-24.98270952585298
 21
94.4929400432737
 31
0.0
  0
LINE
  5
1D6
330
1F
100
AcDbEntity
  8
0
  6
Continuous
 62
     7
100
AcDbLine
 10
-14.68270952585257
 20
91.99294004327406
 30
0.0
 11
-12.88270952585301
 21
91.9929400432751
 31
0.0
  0
LINE
  5
1D7
330
1F
100
AcDbEntity
  8
0
  6
Continuous
 62
     7
100
AcDbLine
 10
-12.88270952585301
 20
91.9929400432751
 30
0.0
 11
-12.88270952585301
 21
94.492940043274
 31
0.0
  0
LINE
  5
1D8
330
1F
100
AcDbEntity
  8
0
  6
Continuous
 62
     7
100
AcDbLine
 10
-15.88270952585301
 20
91.99294004327393
 30
0.0
 11
-15.88270952585301
 21
94.49294004327392
 31
0.0
  0
LINE
  5
1D9
330
1F
100
AcDbEntity
  8
0
  6
Continuous
 62
     7
100
AcDbLine
 10
-15.88270952585301
 20
91.99294004327393
 30
0.0
 11
-15.87138466044755
 21
91.99294004327403
 31
0.0
  0
LINE
  5
1DA
330
1F
100
AcDbEntity
  8
0
  6
Continuous
 62
     7
100
AcDbLine
 10
-15.87138466044755
 20
91.99294004327403
 30
0.0
 11
-14.68270952585257
 21
91.99294004327406
 31
0.0
  0
LINE
  5
1DB
330
1F
100
AcDbEntity
  8
0
  6
Continuous
 62
     7
100
AcDbLine
 10
-16.84035302314774
 20
91.99294004327403
 30
0.0
 11
-18.22559886285282
 21
91.99294004327398
 31
0.0
  0
LINE
  5
1DC
330
1F
100
AcDbEntity
  8
0
  6
Continuous
 62
     7
100
AcDbLine
 10
-16.84035302314774
 20
91.99294004327403
 30
0.0
 11
-15.88270952585301
 21
91.99294004327393
 31
0.0
  0
LINE
  5
1DD
330
1F
100
AcDbEntity
  8
0
  6
Continuous
 62
     7
100
AcDbLine
 10
-24.88270952585273
 20
91.99294004327372
 30
0.0
 11
-24.98270952585276
 21
91.99294004327383
 31
0.0
  0
LINE
  5
1DE
330
1F
100
AcDbEntity
  8
0
  6
Continuous
 62
     7
100
AcDbLine
 10
-21.78270952585243
 20
82.99294004327392
 30
0.0
 11
-24.98270952585253
 21
82.99294004327383
 31
0.0
  0
LINE
  5
1DF
330
1F
100
AcDbEntity
  8
0
  6
Continuous
 62
     7
100
AcDbLine
 10
-21.78270952585277
 20
91.99294004327389
 30
0.0
 11
-21.78270952585243
 21
82.99294004327392
 31
0.0
  0
LINE
  5
1E0
330
1F
100
AcDbEntity
  8
0
  6
Continuous
 62
     7
100
AcDbLine
 10
-21.78270952585277
 20
91.99294004327389
 30
0.0
 11
-24.88270952585273
 21
91.99294004327372
 31
0.0
  0
LINE
  5
1E1
330
1F
100
AcDbEntity
  8
0
  6
Continuous
 62
     7
100
AcDbLine
 10
-29.73270952585276
 20
91.99294004327372
 30
0.0
 11
-29.58270952585272
 21
91.9929400432734
 31
0.0
  0
LINE
  5
1E2
330
1F
100
AcDbEntity
  8
0
  6
Continuous
 62
     7
100
AcDbLine
 10
-30.88270952585301
 20
91.99294004327466
 30
0.0
 11
-29.73270952585276
 21
91.99294004327372
 31
0.0
  0
LINE
  5
1E3
330
1F
100
AcDbEntity
  8
0
  6
Continuous
 62
     7
100
AcDbLine
 10
-30.88270952585301
 20
91.99294004327466
 30
0.0
 11
-30.88270952585285
 21
94.49294004327369
 31
0.0
  0
LINE
  5
1E4
330
1F
100
AcDbEntity
  8
0
  6
Continuous
 62
     7
100
AcDbLine
 10
-33.88270952585301
 20
91.99294004327459
 30
0.0
 11
-30.88270952585301
 21
91.99294004327466
 31
0.0
  0
LINE
  5
1E5
330
1F
100
AcDbEntity
  8
0
  6
Continuous
 62
     7
100
AcDbLine
 10
-33.88270952585301
 20
91.99294004327459
 30
0.0
 11
-33.88270952585285
 21
94.49294004327363
 31
0.0
  0
LINE
  5
1E6
330
1F
100
AcDbEntity
  8
0
  6
Continuous
 62
     7
100
AcDbLine
 10
-33.88270952585285
 20
94.49294004327363
 30
0.0
 11
-12.88270952585301
 21
94.492940043274
 31
0.0
  0
LINE
  5
1E7
330
1F
100
AcDbEntity
  8
0
  6
Continuous
 62
     7
100
AcDbLine
 10
-18.88270952585273
 20
91.99294004327398
 30
0.0
 11
-18.27482964724803
 21
91.99294004327398
 31
0.0
  0
LINE
  5
1E8
330
1F
100
AcDbEntity
  8
0
  6
Continuous
 62
     7
100
AcDbLine
 10
-21.78270952585277
 20
91.99294004327389
 30
0.0
 11
-21.88270952585273
 21
91.99294004327383
 31
0.0
  0
LINE
  5
1E9
330
1F
100
AcDbEntity
  8
0
  6
Continuous
 62
     7
100
AcDbLine
 10
-18.88270952585216
 20
69.14294004327395
 30
0.0
 11
-18.88270952585273
 21
91.99294004327398
 31
0.0
  0
LINE
  5
1EA
330
1F
100
AcDbEntity
  8
0
  6
Continuous
 62
     7
100
AcDbLine
 10
-21.88270952585205
 20
62.99294004327389
 30
0.0
 11
-18.88270952585205
 21
62.99294004327398
 31
0.0
  0
LINE
  5
1EB
330
1F
100
AcDbEntity
  8
0
  6
Continuous
 62
     7
100
AcDbLine
 10
-21.88270952585216
 20
66.84294004327388
 30
0.0
 11
-21.88270952585205
 21
62.99294004327389
 31
0.0
  0
LINE
  5
1EC
330
1F
100
AcDbEntity
  8
0
  6
Continuous
 62
     7
100
AcDbLine
 10
-24.88270952585256
 20
79.69294004327382
 30
0.0
 11
-24.88270952585222
 21
69.14294004327384
 31
0.0
  0
LINE
  5
1ED
330
1F
100
AcDbEntity
  8
0
  6
Continuous
 62
     7
100
AcDbLine
 10
-24.88270952585205
 20
62.99294004327381
 30
0.0
 11
-24.88270952585216
 21
66.84294004327383
 31
0.0
  0
LINE
  5
1EE
330
1F
100
AcDbEntity
  8
0
  6
Continuous
 62
     7
100
AcDbLine
 10
-24.88270952585205
 20
62.99294004327381
 30
0.0
 11
-21.88270952585205
 21
62.99294004327389
 31
0.0
  0
LINE
  5
1EF
330
1F
100
AcDbEntity
  8
0
  6
Continuous
 62
     7
100
AcDbLine
 10
-27.88270952585205
 20
62.99294004327375
 30
0.0
 11
-24.88270952585205
 21
62.99294004327381
 31
0.0
  0
LINE
  5
1F0
330
1F
100
AcDbEntity
  8
0
  6
Continuous
 62
     7
100
AcDbLine
 10
-27.88270952585205
 20
62.99294004327375
 30
0.0
 11
-27.88270952585216
 21
66.84294004327374
 31
0.0
  0
LINE
  5
1F1
330
1F
100
AcDbEntity
  8
0
  6
Continuous
 62
     7
100
AcDbLine
 10
-21.88270952585245
 20
79.69294004327391
 30
0.0
 11
-18.88270952585245
 21
79.69294004327396
 31
0.0
  0
LINE
  5
1F2
330
1F
100
AcDbEntity
  8
0
  6
Continuous
 62
     7
100
AcDbLine
 10
-21.88270952585216
 20
69.1429400432739
 30
0.0
 11
-21.88270952585245
 21
79.69294004327391
 31
0.0
  0
LINE
  5
1F3
330
1F
100
AcDbEntity
  8
0
  6
Continuous
 62
     7
100
AcDbLine
 10
-13.62851782836552
 20
91.99294004327409
 30
0.0
 11
-12.88270952585301
 21
91.9929400432751
 31
0.0
  0
LINE
  5
1F4
330
1F
100
AcDbEntity
  8
0
  6
Continuous
 62
     7
100
AcDbLine
 10
-14.29403439125795
 20
91.99294004327409
 30
0.0
 11
-13.68234296704216
 21
91.99294004327409
 31
0.0
  0
LINE
  5
1F5
330
1F
100
AcDbEntity
  8
0
  6
Continuous
 62
     7
100
AcDbLine
 10
-13.68234296704216
 20
91.99294004327409
 30
0.0
 11
-13.63981674504774
 21
91.99294004327409
 31
0.0
  0
LINE
  5
1F6
330
1F
100
AcDbEntity
  8
0
  6
Continuous
 62
     7
100
AcDbLine
 10
-13.63981674504774
 20
91.99294004327409
 30
0.0
 11
-13.62851782836552
 21
91.99294004327409
 31
0.0
  0
LINE
  5
1F7
330
1F
100
AcDbEntity
  8
0
  6
Continuous
 62
     7
100
AcDbLine
 10
-15.87138466044755
 20
91.99294004327403
 30
0.0
 11
-15.52933741998217
 21
91.99294004327406
 31
0.0
  0
LINE
  5
1F8
330
1F
100
AcDbEntity
  8
0
  6
Continuous
 62
     7
100
AcDbLine
 10
-15.88270952585301
 20
91.99294004327393
 30
0.0
 11
-15.87138466044755
 21
91.99294004327403
 31
0.0
  0
LINE
  5
1F9
330
1F
100
AcDbEntity
  8
0
  6
Continuous
 62
     7
100
AcDbLine
 10
-15.52933741998217
 20
91.99294004327406
 30
0.0
 11
-15.39446147534082
 21
91.99294004327406
 31
0.0
  0
LINE
  5
1FA
330
1F
100
AcDbEntity
  8
0
  6
Continuous
 62
     7
100
AcDbLine
 10
-15.39446147534082
 20
91.99294004327406
 30
0.0
 11
-14.29403439125795
 21
91.99294004327409
 31
0.0
  0
LINE
  5
1FB
330
1F
100
AcDbEntity
  8
0
  6
Continuous
 62
     7
100
AcDbLine
 10
-12.88270952585216
 20
69.14294004327412
 30
0.0
 11
-12.88270952585301
 21
91.9929400432751
 31
0.0
  0
LINE
  5
1FC
330
1F
100
AcDbEntity
  8
0
  6
Continuous
 62
     7
100
AcDbLine
 10
-17.08270952585272
 20
91.99294004327403
 30
0.0
 11
-18.27482964724803
 21
91.99294004327398
 31
0.0
  0
LINE
  5
1FD
330
1F
100
AcDbEntity
  8
0
  6
Continuous
 62
     7
100
AcDbLine
 10
-17.08270952585272
 20
91.99294004327403
 30
0.0
 11
-15.88270952585301
 21
91.99294004327393
 31
0.0
  0
LINE
  5
1FE
330
1F
100
AcDbEntity
  8
0
  6
Continuous
 62
     7
100
AcDbLine
 10
-18.88270952585205
 20
62.99294004327398
 30
0.0
 11
-15.88270952585205
 21
62.99294004327403
 31
0.0
  0
LINE
  5
1FF
330
1F
100
AcDbEntity
  8
0
  6
Continuous
 62
     7
100
AcDbLine
 10
-13.63270952585205
 20
62.99294004327409
 30
0.0
 11
-15.88270952585205
 21
62.99294004327403
 31
0.0
  0
LINE
  5
200
330
1F
100
AcDbEntity
  8
0
  6
Continuous
 62
     7
100
AcDbLine
 10
-12.88270952585205
 20
62.99294004327412
 30
0.0
 11
-13.63270952585205
 21
62.99294004327409
 31
0.0
  0
LINE
  5
201
330
1F
100
AcDbEntity
  8
0
  6
Continuous
 62
     7
100
AcDbLine
 10
-13.63270952585216
 20
66.84294004327411
 30
0.0
 11
-13.63270952585205
 21
62.99294004327409
 31
0.0
  0
LINE
  5
202
330
1F
100
AcDbEntity
  8
0
  6
Continuous
 62
     7
100
AcDbLine
 10
-15.88270952585216
 20
69.14294004327404
 30
0.0
 11
-15.88270952585301
 21
91.99294004327393
 31
0.0
  0
LINE
  5
203
330
1F
100
AcDbEntity
  8
0
  6
Continuous
 62
     7
100
AcDbLine
 10
-15.88270952585216
 20
66.84294004327403
 30
0.0
 11
-15.88270952585205
 21
62.99294004327403
 31
0.0
  0
LINE
  5
204
330
1F
100
AcDbEntity
  8
0
  6
Continuous
 62
     7
100
AcDbLine
 10
-18.88270952585216
 20
66.84294004327397
 30
0.0
 11
-18.88270952585205
 21
62.99294004327398
 31
0.0
  0
LINE
  5
205
330
1F
100
AcDbEntity
  8
0
  6
Continuous
 62
     7
100
AcDbLine
 10
-12.88270952585216
 20
66.84294004327411
 30
0.0
 11
-12.88270952585205
 21
62.99294004327412
 31
0.0
  0
LINE
  5
206
330
1F
100
AcDbEntity
  8
0
  6
Continuous
 62
     7
100
AcDbLine
 10
-24.88270952585273
 20
91.99294004327372
 30
0.0
 11
-24.98270952585276
 21
91.99294004327383
 31
0.0
  0
LINE
  5
207
330
1F
100
AcDbEntity
  8
0
  6
Continuous
 62
     7
100
AcDbLine
 10
-21.88270952585273
 20
91.99294004327383
 30
0.0
 11
-24.88270952585273
 21
91.99294004327372
 31
0.0
  0
LINE
  5
208
330
1F
100
AcDbEntity
  8
0
  6
Continuous
 62
     7
100
AcDbLine
 10
-24.88270952585256
 20
79.69294004327382
 30
0.0
 11
-27.88270952585256
 21
79.69294004327374
 31
0.0
  0
LINE
  5
209
330
1F
100
AcDbEntity
  8
0
  6
Continuous
 62
     7
100
AcDbLine
 10
-33.88270952585301
 20
91.99294004327459
 30
0.0
 11
-33.88270952585268
 21
69.14294004327458
 31
0.0
  0
LINE
  5
20A
330
1F
100
AcDbEntity
  8
0
  6
Continuous
 62
     7
100
AcDbLine
 10
-29.58270952585272
 20
91.9929400432734
 30
0.0
 11
-28.19155607332394
 21
91.99294004327375
 31
0.0
  0
LINE
  5
20B
330
1F
100
AcDbEntity
  8
0
  6
Continuous
 62
     7
100
AcDbLine
 10
-29.73270952585276
 20
91.99294004327372
 30
0.0
 11
-29.58270952585272
 21
91.9929400432734
 31
0.0
  0
LINE
  5
20C
330
1F
100
AcDbEntity
  8
0
  6
Continuous
 62
     7
100
AcDbLine
 10
-30.88270952585301
 20
91.99294004327466
 30
0.0
 11
-29.73270952585276
 21
91.99294004327372
 31
0.0
  0
LINE
  5
20D
330
1F
100
AcDbEntity
  8
0
  6
Continuous
 62
     7
100
AcDbLine
 10
-28.19155607332394
 20
91.99294004327375
 30
0.0
 11
-27.88270952585273
 21
91.99294004327375
 31
0.0
  0
LINE
  5
20E
330
1F
100
AcDbEntity
  8
0
  6
Continuous
 62
     7
100
AcDbLine
 10
-32.49466852399516
 20
91.99294004327366
 30
0.0
 11
-31.62024116365805
 21
91.99294004327366
 31
0.0
  0
LINE
  5
20F
330
1F
100
AcDbEntity
  8
0
  6
Continuous
 62
     7
100
AcDbLine
 10
-31.62024116365805
 20
91.99294004327366
 30
0.0
 11
-30.88270952585301
 21
91.99294004327466
 31
0.0
  0
LINE
  5
210
330
1F
100
AcDbEntity
  8
0
  6
Continuous
 62
     7
100
AcDbLine
 10
-33.88270952585301
 20
91.99294004327459
 30
0.0
 11
-32.98270952585276
 21
91.99294004327363
 31
0.0
  0
LINE
  5
211
330
1F
100
AcDbEntity
  8
0
  6
Continuous
 62
     7
100
AcDbLine
 10
-32.98270952585276
 20
91.99294004327363
 30
0.0
 11
-32.49466852399516
 21
91.99294004327366
 31
0.0
  0
LINE
  5
212
330
1F
100
AcDbEntity
  8
0
  6
Continuous
 62
     7
100
AcDbLine
 10
-27.88270952585273
 20
91.99294004327375
 30
0.0
 11
-27.88270952585222
 21
69.14294004327375
 31
0.0
  0
LINE
  5
213
330
1F
100
AcDbEntity
  8
0
  6
Continuous
 62
     7
100
AcDbLine
 10
-30.88270952585301
 20
91.99294004327466
 30
0.0
 11
-30.88270952585222
 21
69.14294004327367
 31
0.0
  0
LINE
  5
214
330
1F
100
AcDbEntity
  8
0
  6
Continuous
 62
     7
100
AcDbLine
 10
-33.13270952585205
 20
62.99294004327363
 30
0.0
 11
-33.13270952585216
 21
66.84294004327363
 31
0.0
  0
LINE
  5
215
330
1F
100
AcDbEntity
  8
0
  6
Continuous
 62
     7
100
AcDbLine
 10
-30.88270952585205
 20
62.99294004327369
 30
0.0
 11
-27.88270952585205
 21
62.99294004327375
 31
0.0
  0
LINE
  5
216
330
1F
100
AcDbEntity
  8
0
  6
Continuous
 62
     7
100
AcDbLine
 10
-30.88270952585205
 20
62.99294004327369
 30
0.0
 11
-30.88270952585216
 21
66.84294004327369
 31
0.0
  0
LINE
  5
217
330
1F
100
AcDbEntity
  8
0
  6
Continuous
 62
     7
100
AcDbLine
 10
-33.13270952585205
 20
62.99294004327363
 30
0.0
 11
-30.88270952585205
 21
62.99294004327369
 31
0.0
  0
LINE
  5
218
102
{ACAD_REACTORS
330
32E
102
}
330
1F
100
AcDbEntity
  8
1
  6
Continuous
 62
     7
100
AcDbLine
 10
-76.0327095258528
 20
46.47294004327394
 30
0.0
 11
-76.03270952585268
 21
30.47294004327387
 31
0.0
  0
LINE
  5
219
102
{ACAD_REACTORS
330
32E
102
}
330
1F
100
AcDbEntity
  8
1
  6
Continuous
 62
     7
100
AcDbLine
 10
-52.0327095258527
 20
30.47294004327387
 30
0.0
 11
-52.03270952585269
 21
46.47294004327394
 31
0.0
  0
LINE
  5
21A
102
{ACAD_REACTORS
330
32E
102
}
330
1F
100
AcDbEntity
  8
1
  6
Continuous
 62
     7
100
AcDbLine
 10
-56.03270952585269
 20
50.47294004327394
 30
0.0
 11
-72.0327095258528
 21
50.47294004327394
 31
0.0
  0
LINE
  5
21B
330
1F
100
AcDbEntity
  8
1
  6
Continuous
 62
     7
100
AcDbLine
 10
-94.5
 20
12.5
 30
0.0
 11
-2.5
 21
12.5
 31
0.0
  0
LINE
  5
21C
330
1F
100
AcDbEntity
  8
1
  6
Continuous
 62
     7
100
AcDbLine
 10
-91.0
 20
10.0
 30
0.0
 11
-91.0
 21
12.5
 31
0.0
  0
LINE
  5
21D
330
1F
100
AcDbEntity
  8
1
  6
Continuous
 62
     7
100
AcDbLine
 10
-82.0
 20
10.0
 30
0.0
 11
-82.0
 21
12.5
 31
0.0
  0
LINE
  5
21E
330
1F
100
AcDbEntity
  8
1
  6
Continuous
 62
     7
100
AcDbLine
 10
-94.5
 20
15.0
 30
0.0
 11
-2.5
 21
15.0
 31
0.0
  0
LINE
  5
21F
330
1F
100
AcDbEntity
  8
1
  6
Continuous
 62
     7
100
AcDbLine
 10
-91.0
 20
12.5
 30
0.0
 11
-91.0
 21
15.0
 31
0.0
  0
LINE
  5
220
330
1F
100
AcDbEntity
  8
1
  6
Continuous
 62
     7
100
AcDbLine
 10
-82.0
 20
12.5
 30
0.0
 11
-82.0
 21
15.0
 31
0.0
  0
LINE
  5
221
330
1F
100
AcDbEntity
  8
1
  6
Continuous
 62
     7
100
AcDbLine
 10
-94.5
 20
17.5
 30
0.0
 11
-2.5
 21
17.5
 31
0.0
  0
LINE
  5
222
330
1F
100
AcDbEntity
  8
1
  6
Continuous
 62
     7
100
AcDbLine
 10
-91.0
 20
15.0
 30
0.0
 11
-91.0
 21
17.5
 31
0.0
  0
LINE
  5
223
330
1F
100
AcDbEntity
  8
1
  6
Continuous
 62
     7
100
AcDbLine
 10
-82.0
 20
15.0
 30
0.0
 11
-82.0
 21
17.5
 31
0.0
  0
LINE
  5
224
330
1F
100
AcDbEntity
  8
1
  6
Continuous
 62
     7
100
AcDbLine
 10
-94.5
 20
20.0
 30
0.0
 11
-2.5
 21
20.0
 31
0.0
  0
LINE
  5
225
330
1F
100
AcDbEntity
  8
1
  6
Continuous
 62
     7
100
AcDbLine
 10
-91.0
 20
17.5
 30
0.0
 11
-91.0
 21
20.0
 31
0.0
  0
LINE
  5
226
330
1F
100
AcDbEntity
  8
1
  6
Continuous
 62
     7
100
AcDbLine
 10
-82.0
 20
17.5
 30
0.0
 11
-82.0
 21
20.0
 31
0.0
  0
LINE
  5
227
330
1F
100
AcDbEntity
  8
1
  6
Continuous
 62
     7
100
AcDbLine
 10
-94.5
 20
146.0000000000001
 30
0.0
 11
-94.5
 21
2.49999999999994
 31
0.0
  0
LINE
  5
228
330
1F
100
AcDbEntity
  8
1
  6
Continuous
 62
     7
100
AcDbLine
 10
-2.5
 20
146.0000000000001
 30
0.0
 11
-94.5
 21
146.0000000000001
 31
0.0
  0
LINE
  5
229
330
1F
100
AcDbEntity
  8
1
  6
Continuous
 62
     7
100
AcDbLine
 10
-2.5
 20
2.49999999999994
 30
0.0
 11
-2.5
 21
146.0000000000001
 31
0.0
  0
LINE
  5
22A
330
1F
100
AcDbEntity
  8
1
  6
Continuous
 62
     7
100
AcDbLine
 10
0.0
 20
148.5000000000001
 30
0.0
 11
-105.0000000000001
 21
148.5000000000001
 31
0.0
  0
LINE
  5
22B
330
1F
100
AcDbEntity
  8
1
  6
Continuous
 62
     7
100
AcDbLine
 10
-105.0000000000001
 20
148.5000000000001
 30
0.0
 11
-105.0000000000001
 21
0.0
 31
0.0
  0
LINE
  5
22C
330
1F
100
AcDbEntity
  8
1
  6
Continuous
 62
     7
100
AcDbLine
 10
-105.0000000000001
 20
0.0
 30
0.0
 11
0.0
 21
0.0
 31
0.0
  0
LINE
  5
22D
330
1F
100
AcDbEntity
  8
1
  6
Continuous
 62
     7
100
AcDbLine
 10
0.0
 20
0.0
 30
0.0
 11
0.0
 21
148.5000000000001
 31
0.0
  0
LINE
  5
22E
330
1F
100
AcDbEntity
  8
1
  6
Continuous
 62
     7
100
AcDbLine
 10
-105.0000000000001
 20
74.2499999999999
 30
0.0
 11
-97.50000000000006
 21
74.2499999999999
 31
0.0
  0
LINE
  5
22F
330
1F
100
AcDbEntity
  8
1
  6
Continuous
 62
     7
100
AcDbLine
 10
-94.5
 20
6.25
 30
0.0
 11
-79.5
 21
6.25
 31
0.0
  0
LINE
  5
230
330
1F
100
AcDbEntity
  8
1
  6
Continuous
 62
     7
100
AcDbLine
 10
-79.5
 20
10.0
 30
0.0
 11
-79.5
 21
2.5
 31
0.0
  0
LINE
  5
231
330
1F
100
AcDbEntity
  8
1
  6
Continuous
 62
     7
100
AcDbLine
 10
-94.5
 20
10.0
 30
0.0
 11
-2.5
 21
10.0
 31
0.0
  0
LINE
  5
232
330
1F
100
AcDbEntity
  8
1
  6
Continuous
 62
     7
100
AcDbLine
 10
-15.82369931125731
 20
10.0
 30
0.0
 11
-15.82369931125731
 21
2.5
 31
0.0
  0
LINE
  5
233
102
{ACAD_REACTORS
330
32B
102
}
330
1F
100
AcDbEntity
  8
1
  6
Continuous
 62
     7
100
AcDbLine
 10
-8.66184965562866
 20
6.25
 30
0.0
 11
-8.66184965562866
 21
7.11602540378442
 31
0.0
  0
LINE
  5
234
102
{ACAD_REACTORS
330
32B
102
}
330
1F
100
AcDbEntity
  8
1
  6
Continuous
 62
     7
100
AcDbLine
 10
-8.66184965562866
 20
7.11602540378442
 30
0.0
 11
-9.08968087197997
 21
6.375
 31
0.0
  0
LINE
  5
235
102
{ACAD_REACTORS
330
32B
102
}
330
1F
100
AcDbEntity
  8
1
  6
Continuous
 62
     7
100
AcDbLine
 10
-9.2340184392774
 20
6.375
 30
0.0
 11
-9.66184965562866
 21
7.11602540378442
 31
0.0
  0
LINE
  5
236
102
{ACAD_REACTORS
330
32B
102
}
330
1F
100
AcDbEntity
  8
1
  6
Continuous
 62
     7
100
AcDbLine
 10
-9.66184965562866
 20
7.11602540378442
 30
0.0
 11
-9.66184965562866
 21
6.25
 31
0.0
  0
LINE
  5
237
330
1F
100
AcDbEntity
  8
1
  6
Continuous
 62
     7
100
AcDbLine
 10
-13.37006729319944
 20
6.32218213217067
 30
0.0
 11
-9.16184965562866
 21
8.75
 31
0.0
  0
LINE
  5
238
330
1F
100
AcDbEntity
  8
1
  6
Continuous
 62
     7
100
AcDbLine
 10
-9.16184965562866
 20
8.75
 30
0.0
 11
-4.95363201805793
 21
6.32218213217067
 31
0.0
  0
LINE
  5
239
330
1F
100
AcDbEntity
  8
1
  6
Continuous
 62
     7
100
AcDbLine
 10
-4.95363201805793
 20
6.17781786782928
 30
0.0
 11
-9.16184965562866
 21
3.75
 31
0.0
  0
LINE
  5
23A
330
1F
100
AcDbEntity
  8
1
  6
Continuous
 62
     7
100
AcDbLine
 10
-9.16184965562866
 20
3.75
 30
0.0
 11
-13.37006729319944
 21
6.17781786782928
 31
0.0
  0
LINE
  5
23B
102
{ACAD_REACTORS
330
32B
102
}
330
1F
100
AcDbEntity
  8
1
  6
Continuous
 62
     7
100
AcDbLine
 10
-9.99518298896203
 20
6.25
 30
0.0
 11
-9.99518298896203
 21
7.86560865601728
 31
0.0
  0
LINE
  5
23C
102
{ACAD_REACTORS
330
32B
102
}
330
1F
100
AcDbEntity
  8
1
  6
Continuous
 62
     7
100
AcDbLine
 10
-9.7479661471503
 20
7.93185020913614
 30
0.0
 11
-9.16184965562866
 21
6.91666666666663
 31
0.0
  0
LINE
  5
23D
102
{ACAD_REACTORS
330
32B
102
}
330
1F
100
AcDbEntity
  8
1
  6
Continuous
 62
     7
100
AcDbLine
 10
-9.99518298896203
 20
6.25
 30
0.0
 11
-9.99518298896203
 21
5.42379253631645
 31
0.0
  0
LINE
  5
23E
102
{ACAD_REACTORS
330
32B
102
}
330
1F
100
AcDbEntity
  8
1
  6
Continuous
 62
     7
100
AcDbLine
 10
-9.66184965562866
 20
5.42379253631645
 30
0.0
 11
-9.66184965562866
 21
6.25
 31
0.0
  0
LINE
  5
23F
102
{ACAD_REACTORS
330
32B
102
}
330
1F
100
AcDbEntity
  8
1
  6
Continuous
 62
     7
100
AcDbLine
 10
-8.66184965562866
 20
6.25
 30
0.0
 11
-8.66184965562866
 21
4.6541345353009
 31
0.0
  0
LINE
  5
240
102
{ACAD_REACTORS
330
32B
102
}
330
1F
100
AcDbEntity
  8
1
  6
Continuous
 62
     7
100
AcDbLine
 10
-8.32851632229534
 20
4.6541345353009
 30
0.0
 11
-8.32851632229534
 21
7.86560865601728
 31
0.0
  0
LINE
  5
241
102
{ACAD_REACTORS
330
32B
102
}
330
1F
100
AcDbEntity
  8
1
  6
Continuous
 62
     7
100
AcDbLine
 10
-8.57573316410702
 20
7.93185020913614
 30
0.0
 11
-9.16184965562866
 21
6.91666666666663
 31
0.0
  0
LINE
  5
242
102
{ACAD_REACTORS
330
32C
102
}
330
1F
100
AcDbEntity
  8
1
  6
Continuous
 62
     7
100
AcDbLine
 10
-10.66184965562866
 20
5.13501057401629
 30
0.0
 11
-10.66184965562866
 21
7.46125008008369
 31
0.0
  0
LINE
  5
243
102
{ACAD_REACTORS
330
32C
102
}
330
1F
100
AcDbEntity
  8
1
  6
Continuous
 62
     7
100
AcDbLine
 10
-10.32851632229534
 20
7.46125008008369
 30
0.0
 11
-10.32851632229534
 21
5.13501057401635
 31
0.0
  0
LINE
  5
244
102
{ACAD_REACTORS
330
32C
102
}
330
1F
100
AcDbEntity
  8
1
  6
Continuous
 62
     7
100
AcDbLine
 10
-10.32851632229534
 20
5.13501057401635
 30
0.0
 11
-9.24522924671374
 21
4.5100372611808
 31
0.0
  0
LINE
  5
245
102
{ACAD_REACTORS
330
32C
102
}
330
1F
100
AcDbEntity
  8
1
  6
Continuous
 62
     7
100
AcDbLine
 10
-9.41180339787695
 20
4.2213087324979
 30
0.0
 11
-10.49509047345851
 21
4.84628204533345
 31
0.0
  0
LINE
  5
246
102
{ACAD_REACTORS
330
32A
102
}
330
1F
100
AcDbEntity
  8
1
  6
Continuous
 62
     7
100
AcDbLine
 10
-10.99518298896203
 20
7.07663469546833
 30
0.0
 11
-10.99518298896203
 21
5.51962595863165
 31
0.0
  0
LINE
  5
247
102
{ACAD_REACTORS
330
32A
102
}
330
1F
100
AcDbEntity
  8
1
  6
Continuous
 62
     7
100
AcDbLine
 10
-10.99518298896203
 20
5.51962595863165
 30
0.0
 11
-10.99518298896203
 21
5.42336530453161
 31
0.0
  0
LINE
  5
248
102
{ACAD_REACTORS
330
32A
102
}
330
1F
100
AcDbEntity
  8
1
  6
Continuous
 62
     7
100
AcDbLine
 10
-11.32851632229534
 20
5.42336530453161
 30
0.0
 11
-11.32851632229534
 21
7.07663469546833
 31
0.0
  0
LINE
  5
249
102
{ACAD_REACTORS
330
32D
102
}
330
1F
100
AcDbEntity
  8
1
  6
Continuous
 62
     7
100
AcDbLine
 10
-7.74522924671373
 20
7.60561434442513
 30
0.0
 11
-7.07856258004711
 21
7.22099895980972
 31
0.0
  0
LINE
  5
24A
102
{ACAD_REACTORS
330
32D
102
}
330
1F
100
AcDbEntity
  8
1
  6
Continuous
 62
     7
100
AcDbLine
 10
-7.24513673121027
 20
6.93227043112688
 30
0.0
 11
-7.66184965562865
 21
7.17268173367597
 31
0.0
  0
LINE
  5
24B
102
{ACAD_REACTORS
330
32D
102
}
330
1F
100
AcDbEntity
  8
1
  6
Continuous
 62
     7
100
AcDbLine
 10
-7.66184965562865
 20
7.17268173367597
 30
0.0
 11
-7.66184965562865
 21
6.41666666666663
 31
0.0
  0
LINE
  5
24C
102
{ACAD_REACTORS
330
32D
102
}
330
1F
100
AcDbEntity
  8
1
  6
Continuous
 62
     7
100
AcDbLine
 10
-7.66184965562865
 20
6.41666666666663
 30
0.0
 11
-7.16184965562865
 21
6.41666666666663
 31
0.0
  0
LINE
  5
24D
102
{ACAD_REACTORS
330
32D
102
}
330
1F
100
AcDbEntity
  8
1
  6
Continuous
 62
     7
100
AcDbLine
 10
-7.16184965562865
 20
6.08333333333332
 30
0.0
 11
-7.66184965562865
 21
6.08333333333332
 31
0.0
  0
LINE
  5
24E
102
{ACAD_REACTORS
330
32D
102
}
330
1F
100
AcDbEntity
  8
1
  6
Continuous
 62
     7
100
AcDbLine
 10
-7.66184965562865
 20
6.08333333333332
 30
0.0
 11
-7.66184965562865
 21
5.32731826632397
 31
0.0
  0
LINE
  5
24F
102
{ACAD_REACTORS
330
32D
102
}
330
1F
100
AcDbEntity
  8
1
  6
Continuous
 62
     7
100
AcDbLine
 10
-7.66184965562865
 20
5.32731826632397
 30
0.0
 11
-7.24513673121027
 21
5.56772956887312
 31
0.0
  0
LINE
  5
250
102
{ACAD_REACTORS
330
32D
102
}
330
1F
100
AcDbEntity
  8
1
  6
Continuous
 62
     7
100
AcDbLine
 10
-7.07856258004711
 20
5.27900104019017
 30
0.0
 11
-7.74522924671373
 21
4.89438565557487
 31
0.0
  0
LINE
  5
251
102
{ACAD_REACTORS
330
32D
102
}
330
1F
100
AcDbEntity
  8
1
  6
Continuous
 62
     7
100
AcDbLine
 10
-7.99518298896197
 20
5.03874991991631
 30
0.0
 11
-7.99518298896197
 21
7.46125008008369
 31
0.0
  0
LINE
  5
252
330
1F
100
AcDbEntity
  8
1
  6
Continuous
 62
     7
100
AcDbLine
 10
-24.5
 20
10.0
 30
0.0
 11
-24.5
 21
2.5
 31
0.0
  0
LINE
  5
253
330
1F
100
AcDbEntity
  8
1
  6
Continuous
 62
     7
100
AcDbLine
 10
-94.5
 20
10.0
 30
0.0
 11
-94.5
 21
2.49999999999994
 31
0.0
  0
LINE
  5
254
330
1F
100
AcDbEntity
  8
1
  6
Continuous
 62
     7
100
AcDbLine
 10
-94.5
 20
2.49999999999994
 30
0.0
 11
-2.5
 21
2.49999999999994
 31
0.0
  0
LINE
  5
255
330
1F
100
AcDbEntity
  8
1
  6
Continuous
 62
     7
100
AcDbLine
 10
-54.03230946032593
 20
4.40253384026496
 30
0.0
 11
-53.03686871569281
 21
4.40253384026496
 31
0.0
  0
LINE
  5
256
330
1F
100
AcDbEntity
  8
1
  6
Continuous
 62
     7
100
AcDbLine
 10
-53.68102240644186
 20
3.96342502290977
 30
0.0
 11
-52.38764734441388
 21
3.96342502290977
 31
0.0
  0
LINE
  5
257
330
1F
100
AcDbEntity
  8
1
  6
Continuous
 62
     7
100
AcDbLine
 10
-53.32973535255768
 20
3.52431620555463
 30
0.0
 11
-52.73893439829798
 21
3.52431620555463
 31
0.0
  0
LINE
  5
258
330
1F
100
AcDbEntity
  8
1
  6
Continuous
 62
     7
100
AcDbLine
 10
-53.03686871569281
 20
5.33809610980424
 30
0.0
 11
-53.03686871569281
 21
4.40253384026496
 31
0.0
  0
LINE
  5
259
330
1F
100
AcDbEntity
  8
1
  6
Continuous
 62
     7
100
AcDbLine
 10
-53.03686871569281
 20
4.40253384026496
 30
0.0
 11
-52.03636029052973
 21
4.40253384026496
 31
0.0
  0
LINE
  5
25A
102
{ACAD_REACTORS
330
32E
102
}
330
1F
100
AcDbEntity
  8
1
  6
Continuous
 62
     7
100
AcDbLine
 10
-72.03270952585268
 20
26.47294004327387
 30
0.0
 11
-65.51617393953683
 21
26.47294004327387
 31
0.0
  0
LINE
  5
25B
102
{ACAD_REACTORS
330
32E
102
}
330
1F
100
AcDbEntity
  8
1
  6
Continuous
 62
     7
100
AcDbLine
 10
-59.23270952585268
 20
27.9729400432739
 30
0.0
 11
-61.83270952585295
 21
27.9729400432739
 31
0.0
  0
LINE
  5
25C
102
{ACAD_REACTORS
330
32E
102
}
330
1F
100
AcDbEntity
  8
0
  6
Continuous
 62
     7
100
AcDbLine
 10
-68.83270952585265
 20
27.9729400432739
 30
0.0
 11
-71.53270952585268
 21
27.9729400432739
 31
0.0
  0
LINE
  5
25D
102
{ACAD_REACTORS
330
32E
102
}
330
1F
100
AcDbEntity
  8
0
  6
Continuous
 62
     7
100
AcDbLine
 10
-56.5327095258527
 20
27.9729400432739
 30
0.0
 11
-59.23270952585268
 21
27.9729400432739
 31
0.0
  0
LINE
  5
25E
330
1F
100
AcDbEntity
  8
1
  6
Continuous
 62
     7
100
AcDbLine
 10
-62.39168893757028
 20
27.0229400432736
 30
0.0
 11
-62.39168893757028
 21
26.5187014761562
 31
0.0
  0
LINE
  5
25F
330
1F
100
AcDbEntity
  8
1
  6
Continuous
 62
     7
100
AcDbLine
 10
-61.82600351262099
 20
27.0229400432736
 30
0.0
 11
-62.39168893757028
 21
27.0229400432736
 31
0.0
  0
LINE
  5
260
330
1F
100
AcDbEntity
  8
1
  6
Continuous
 62
     7
100
AcDbLine
 10
-61.82600351262099
 20
26.72590609564831
 30
0.0
 11
-61.82600351262099
 21
27.0229400432736
 31
0.0
  0
LINE
  5
261
330
1F
100
AcDbEntity
  8
1
  6
Continuous
 62
     2
100
AcDbLine
 10
-65.53270952585268
 20
28.89720411198562
 30
0.0
 11
-65.28270952585268
 21
29.14720411198562
 31
0.0
  0
LINE
  5
262
330
1F
100
AcDbEntity
  8
1
  6
Continuous
 62
     7
100
AcDbLine
 10
-61.44855481869149
 20
27.37294004327362
 30
0.0
 11
-62.62317059467389
 21
28.67294004327361
 31
0.0
  0
LINE
  5
263
330
1F
100
AcDbEntity
  8
1
  6
Continuous
 62
     7
100
AcDbLine
 10
-66.61686423301398
 20
27.37294004327362
 30
0.0
 11
-65.4422484570315
 21
28.67294004327361
 31
0.0
  0
LINE
  5
264
330
1F
100
AcDbEntity
  8
1
  6
Continuous
 62
     7
100
AcDbLine
 10
-66.13933174442985
 20
27.37294004327362
 30
0.0
 11
-65.1817761905312
 21
28.67294004327361
 31
0.0
  0
LINE
  5
265
330
1F
100
AcDbEntity
  8
1
  6
Continuous
 62
     7
100
AcDbLine
 10
-64.51024201443687
 20
27.37294004327362
 30
0.0
 11
-64.29318179235315
 21
28.67294004327361
 31
0.0
  0
LINE
  5
266
330
1F
100
AcDbEntity
  8
1
  6
Continuous
 62
     7
100
AcDbLine
 10
-62.6577095258528
 20
27.37294004327362
 30
0.0
 11
-63.2827095258528
 21
28.67294004327361
 31
0.0
  0
LINE
  5
267
330
1F
100
AcDbEntity
  8
1
  6
Continuous
 62
     7
100
AcDbLine
 10
-61.92608730727548
 20
27.37294004327362
 30
0.0
 11
-62.88364286117428
 21
28.67294004327361
 31
0.0
  0
LINE
  5
268
330
1F
100
AcDbEntity
  8
1
  6
Continuous
 62
     2
100
AcDbLine
 10
-62.78270952585268
 20
29.14720411198562
 30
0.0
 11
-62.53270952585268
 21
28.89720411198562
 31
0.0
  0
LINE
  5
269
102
{ACAD_REACTORS
330
32E
102
}
330
1F
100
AcDbEntity
  8
1
  6
Continuous
 62
     7
100
AcDbLine
 10
-61.23270952585267
 20
27.37294004327362
 30
0.0
 11
-61.83270952585295
 21
27.9729400432739
 31
0.0
  0
LINE
  5
26A
330
1F
100
AcDbEntity
  8
1
  6
Continuous
 62
     2
100
AcDbLine
 10
-62.78270952585268
 20
29.14720411198562
 30
0.0
 11
-62.78270952585268
 21
29.77294004327391
 31
0.0
  0
LINE
  5
26B
330
1F
100
AcDbEntity
  8
1
  6
Continuous
 62
     2
100
AcDbLine
 10
-65.28270952585268
 20
29.14720411198562
 30
0.0
 11
-65.28270952585268
 21
29.77294004327391
 31
0.0
  0
LINE
  5
26C
330
1F
100
AcDbEntity
  8
1
  6
Continuous
 62
     2
100
AcDbLine
 10
-65.28270952585268
 20
29.14720411198562
 30
0.0
 11
-62.78270952585268
 21
29.14720411198562
 31
0.0
  0
LINE
  5
26D
330
1F
100
AcDbEntity
  8
1
  6
Continuous
 62
     7
100
AcDbLine
 10
-62.53270952585268
 20
28.7972041119856
 30
0.0
 11
-62.53270952585268
 21
29.77294004327391
 31
0.0
  0
LINE
  5
26E
330
1F
100
AcDbEntity
  8
1
  6
Continuous
 62
     7
100
AcDbLine
 10
-65.53270952585268
 20
28.7972041119856
 30
0.0
 11
-65.53270952585268
 21
29.77294004327391
 31
0.0
  0
LINE
  5
26F
102
{ACAD_REACTORS
330
32E
102
}
330
1F
100
AcDbEntity
  8
1
  6
Continuous
 62
     7
100
AcDbLine
 10
-61.23270952585267
 20
27.0229400432736
 30
0.0
 11
-61.23270952585267
 21
27.37294004327362
 31
0.0
  0
LINE
  5
270
330
1F
100
AcDbEntity
  8
1
  6
Continuous
 62
     7
100
AcDbLine
 10
-63.55517703726869
 20
27.37294004327362
 30
0.0
 11
-63.7722372593523
 21
28.67294004327361
 31
0.0
  0
LINE
  5
271
102
{ACAD_REACTORS
330
32E
102
}
330
1F
100
AcDbEntity
  8
1
  6
Continuous
 62
     7
100
AcDbLine
 10
-66.83270952585269
 20
27.37294004327362
 30
0.0
 11
-66.83270952585269
 21
27.0229400432736
 31
0.0
  0
LINE
  5
272
330
1F
100
AcDbEntity
  8
1
  6
Continuous
 62
     7
100
AcDbLine
 10
-61.23270952585267
 20
27.37294004327362
 30
0.0
 11
-66.83270952585269
 21
27.37294004327362
 31
0.0
  0
LINE
  5
273
330
1F
100
AcDbEntity
  8
1
  6
Continuous
 62
     7
100
AcDbLine
 10
-65.62057749149665
 20
28.58507207762961
 30
0.0
 11
-66.23270952585239
 21
27.9729400432739
 31
0.0
  0
LINE
  5
274
330
1F
100
AcDbEntity
  8
1
  6
Continuous
 62
     7
100
AcDbLine
 10
-62.50576344219007
 20
28.67294004327361
 30
0.0
 11
-65.55965560951535
 21
28.67294004327361
 31
0.0
  0
LINE
  5
275
330
1F
100
AcDbEntity
  8
1
  6
Continuous
 62
     7
100
AcDbLine
 10
-65.4077095258528
 20
27.37294004327362
 30
0.0
 11
-64.7827095258528
 21
28.67294004327361
 31
0.0
  0
LINE
  5
276
102
{ACAD_REACTORS
330
32E
102
}
330
1F
100
AcDbEntity
  8
1
  6
Continuous
 62
     7
100
AcDbLine
 10
-66.23270952585239
 20
27.9729400432739
 30
0.0
 11
-68.83270952585265
 21
27.9729400432739
 31
0.0
  0
LINE
  5
277
330
1F
100
AcDbEntity
  8
1
  6
Continuous
 62
     7
100
AcDbLine
 10
-61.83270952585295
 20
27.9729400432739
 30
0.0
 11
-62.44484156020866
 21
28.58507207762961
 31
0.0
  0
LINE
  5
278
102
{ACAD_REACTORS
330
32E
102
}
330
1F
100
AcDbEntity
  8
1
  6
Continuous
 62
     7
100
AcDbLine
 10
-66.23270952585239
 20
27.9729400432739
 30
0.0
 11
-66.83270952585269
 21
27.37294004327362
 31
0.0
  0
LINE
  5
279
102
{ACAD_REACTORS
330
32E
102
}
330
1F
100
AcDbEntity
  8
1
  6
Continuous
 62
     7
100
AcDbLine
 10
-62.54924511216854
 20
26.47294004327387
 30
0.0
 11
-56.0327095258527
 21
26.47294004327387
 31
0.0
  0
ARC
  5
27A
330
1F
100
AcDbEntity
  8
1
  6
Continuous
 62
     7
100
AcDbCircle
 10
-16.78437619252096
 20
79.99294004327398
 30
0.0
 40
5.601666666668575
100
AcDbArc
 50
330.0098417416595
 51
29.99015825834005
  0
ARC
  5
27B
102
{ACAD_REACTORS
330
320
102
}
330
1F
100
AcDbEntity
  8
1
  6
Continuous
 62
     2
100
AcDbCircle
 10
-63.61219938959533
 20
34.7232831623902
 30
0.0
 40
0.0794898637425946
100
AcDbArc
 50
210.0000000000059
 51
0.0
  0
ARC
  5
27C
102
{ACAD_REACTORS
330
320
102
}
330
1F
100
AcDbEntity
  8
1
  6
Continuous
 62
     2
100
AcDbCircle
 10
-63.63270952585276
 20
36.1883728342107
 30
0.0
 40
0.1000000000000796
100
AcDbArc
 50
0.0
 51
180.0
  0
ARC
  5
27D
102
{ACAD_REACTORS
330
320
102
}
330
1F
100
AcDbEntity
  8
1
  6
Continuous
 62
     2
100
AcDbCircle
 10
-64.43270952585277
 20
36.65016763482004
 30
0.0
 40
0.1000000000000796
100
AcDbArc
 50
0.0
 51
180.0
  0
ARC
  5
27E
102
{ACAD_REACTORS
330
320
102
}
330
1F
100
AcDbEntity
  8
1
  6
Continuous
 62
     2
100
AcDbCircle
 10
-64.45321966211009
 20
34.7232831623902
 30
0.0
 40
0.0794898637425945
100
AcDbArc
 50
180.0
 51
329.9999999999737
  0
ARC
  5
27F
102
{ACAD_REACTORS
330
31F
102
}
330
1F
100
AcDbEntity
  8
1
  6
Continuous
 62
     2
100
AcDbCircle
 10
-63.23270952585273
 20
34.96589830795035
 30
0.0
 40
0.0999999999999659
100
AcDbArc
 50
180.0
 51
0.0
  0
ARC
  5
280
102
{ACAD_REACTORS
330
31F
102
}
330
1F
100
AcDbEntity
  8
1
  6
Continuous
 62
     2
100
AcDbCircle
 10
-63.93270952585277
 20
36.82324455789695
 30
0.0
 40
0.1000000000000648
100
AcDbArc
 50
60.01836063113696
 51
240.0183606311494
  0
ARC
  5
281
102
{ACAD_REACTORS
330
31E
102
}
330
1F
100
AcDbEntity
  8
1
  6
Continuous
 62
     2
100
AcDbCircle
 10
-62.83270952585269
 20
35.19666753871955
 30
0.0
 40
0.1000000000000796
100
AcDbArc
 50
180.0
 51
0.0
  0
ARC
  5
282
102
{ACAD_REACTORS
330
31E
102
}
330
1F
100
AcDbEntity
  8
1
  6
Continuous
 62
     2
100
AcDbCircle
 10
-62.83270952585269
 20
36.18862917328159
 30
0.0
 40
0.0999999999999659
100
AcDbArc
 50
0.0
 51
180.0
  0
ARC
  5
283
102
{ACAD_REACTORS
330
321
102
}
330
1F
100
AcDbEntity
  8
1
  6
Continuous
 62
     2
100
AcDbCircle
 10
-65.23270952585273
 20
35.19666753871955
 30
0.0
 40
0.0999999999999672
100
AcDbArc
 50
60.01836063121753
 51
240.018360631153
  0
ARC
  5
284
102
{ACAD_REACTORS
330
321
102
}
330
1F
100
AcDbEntity
  8
1
  6
Continuous
 62
     2
100
AcDbCircle
 10
-65.23270952585273
 20
35.6926483560006
 30
0.0
 40
0.0999999999999872
100
AcDbArc
 50
90.0
 51
270.0
  0
ARC
  5
285
102
{ACAD_REACTORS
330
321
102
}
330
1F
100
AcDbEntity
  8
1
  6
Continuous
 62
     2
100
AcDbCircle
 10
-65.23270952585273
 20
36.18862917328159
 30
0.0
 40
0.0999999999999994
100
AcDbArc
 50
119.981639368847
 51
299.9816393687805
  0
ARC
  5
286
330
1F
100
AcDbEntity
  8
0
  6
Continuous
 62
     7
100
AcDbCircle
 10
-62.53270952585268
 20
38.4729400432738
 30
0.0
 40
0.1000000000000085
100
AcDbArc
 50
270.0
 51
0.0
  0
ARC
  5
287
330
1F
100
AcDbEntity
  8
0
  6
Continuous
 62
     7
100
AcDbCircle
 10
-65.53270952585268
 20
41.67294004327369
 30
0.0
 40
0.1000000000000085
100
AcDbArc
 50
90.0
 51
180.0
  0
ARC
  5
288
330
1F
100
AcDbEntity
  8
0
  6
Continuous
 62
     7
100
AcDbCircle
 10
-62.53270952585268
 20
41.67294004327369
 30
0.0
 40
0.1000000000000227
100
AcDbArc
 50
0.0
 51
90.0
  0
ARC
  5
289
330
1F
100
AcDbEntity
  8
0
  6
Continuous
 62
     7
100
AcDbCircle
 10
-65.53270952585268
 20
38.4729400432738
 30
0.0
 40
0.1000000000000227
100
AcDbArc
 50
180.0
 51
270.0
  0
ARC
  5
28A
330
1F
100
AcDbEntity
  8
0
  6
Continuous
 62
     7
100
AcDbCircle
 10
-70.53270952585268
 20
47.87294004327389
 30
0.0
 40
0.0999999999999091
100
AcDbArc
 50
90.0
 51
180.0
  0
ARC
  5
28B
330
1F
100
AcDbEntity
  8
0
  6
Continuous
 62
     7
100
AcDbCircle
 10
-70.53270952585268
 20
44.77294004327421
 30
0.0
 40
0.1000000000000227
100
AcDbArc
 50
180.0
 51
270.0
  0
ARC
  5
28C
330
1F
100
AcDbEntity
  8
0
  6
Continuous
 62
     7
100
AcDbCircle
 10
-67.53270952585268
 20
47.87294004327389
 30
0.0
 40
0.0999999999998522
100
AcDbArc
 50
0.0
 51
90.0
  0
ARC
  5
28D
330
1F
100
AcDbEntity
  8
0
  6
Continuous
 62
     7
100
AcDbCircle
 10
-67.53270952585268
 20
44.77294004327421
 30
0.0
 40
0.1000000000000227
100
AcDbArc
 50
270.0
 51
0.0
  0
ARC
  5
28E
330
1F
100
AcDbEntity
  8
0
  6
Continuous
 62
     7
100
AcDbCircle
 10
-60.53270952585268
 20
47.87294004327389
 30
0.0
 40
0.0999999999999091
100
AcDbArc
 50
90.0
 51
180.0
  0
ARC
  5
28F
330
1F
100
AcDbEntity
  8
0
  6
Continuous
 62
     7
100
AcDbCircle
 10
-57.53270952585268
 20
44.7729400432739
 30
0.0
 40
0.1000000000000014
100
AcDbArc
 50
270.0
 51
0.0
  0
ARC
  5
290
330
1F
100
AcDbEntity
  8
0
  6
Continuous
 62
     7
100
AcDbCircle
 10
-57.53270952585268
 20
47.87294004327389
 30
0.0
 40
0.0999999999998522
100
AcDbArc
 50
0.0
 51
90.0
  0
ARC
  5
291
330
1F
100
AcDbEntity
  8
0
  6
Continuous
 62
     7
100
AcDbCircle
 10
-60.53270952585268
 20
44.7729400432739
 30
0.0
 40
0.1000000000000156
100
AcDbArc
 50
180.0
 51
270.0
  0
ARC
  5
292
330
1F
100
AcDbEntity
  8
0
  6
Continuous
 62
     7
100
AcDbCircle
 10
-58.88563021326792
 20
31.841882457251
 30
0.0
 40
0.0999999999999732
100
AcDbArc
 50
117.4999999999968
 51
207.4999999999848
  0
ARC
  5
293
330
1F
100
AcDbEntity
  8
0
  6
Continuous
 62
     7
100
AcDbCircle
 10
-57.4542095122394
 20
29.0921488743985
 30
0.0
 40
0.0999999999999847
100
AcDbArc
 50
207.5000000000094
 51
297.5000000000282
  0
ARC
  5
294
330
1F
100
AcDbEntity
  8
0
  6
Continuous
 62
     7
100
AcDbCircle
 10
-56.22459771373332
 20
33.227128296956
 30
0.0
 40
0.1000000000000773
100
AcDbArc
 50
27.49999999997031
 51
117.4999999999759
  0
ARC
  5
295
330
1F
100
AcDbEntity
  8
0
  6
Continuous
 62
     7
100
AcDbCircle
 10
-54.79317701270469
 20
30.47739471410359
 30
0.0
 40
0.100000000000052
100
AcDbArc
 50
297.4999999999732
 51
27.49999999997745
  0
ARC
  5
296
330
1F
100
AcDbEntity
  8
0
  6
Continuous
 62
     7
100
AcDbCircle
 10
-69.1797888384375
 20
31.841882457251
 30
0.0
 40
0.0999999999999798
100
AcDbArc
 50
332.499999999996
 51
62.49999999999963
  0
ARC
  5
297
330
1F
100
AcDbEntity
  8
0
  6
Continuous
 62
     7
100
AcDbCircle
 10
-73.27224203900079
 20
30.47739471410359
 30
0.0
 40
0.0999999999999847
100
AcDbArc
 50
152.4999999999906
 51
242.4999999999623
  0
ARC
  5
298
330
1F
100
AcDbEntity
  8
0
  6
Continuous
 62
     7
100
AcDbCircle
 10
-70.61120953946607
 20
29.09214887439854
 30
0.0
 40
0.0999999999999765
100
AcDbArc
 50
242.4999999999996
 51
332.4999999999557
  0
ARC
  5
299
330
1F
100
AcDbEntity
  8
0
  6
Continuous
 62
     7
100
AcDbCircle
 10
-71.8408213379721
 20
33.2271282969561
 30
0.0
 40
0.0999999999999702
100
AcDbArc
 50
62.49999999999774
 51
152.5000000000261
  0
ARC
  5
29A
102
{ACAD_REACTORS
330
32E
102
}
330
1F
100
AcDbEntity
  8
0
  6
Continuous
 62
     7
100
AcDbCircle
 10
-56.5327095258527
 20
30.9729400432739
 30
0.0
 40
3.0
100
AcDbArc
 50
270.0
 51
0.0
  0
ARC
  5
29B
102
{ACAD_REACTORS
330
32E
102
}
330
1F
100
AcDbEntity
  8
0
  6
Continuous
 62
     7
100
AcDbCircle
 10
-71.53270952585268
 20
45.9729400432738
 30
0.0
 40
3.000000000000099
100
AcDbArc
 50
90.00000000000028
 51
180.0
  0
ARC
  5
29C
102
{ACAD_REACTORS
330
32E
102
}
330
1F
100
AcDbEntity
  8
0
  6
Continuous
 62
     7
100
AcDbCircle
 10
-71.53270952585268
 20
30.9729400432739
 30
0.0
 40
3.000000000000014
100
AcDbArc
 50
180.0
 51
270.0
  0
ARC
  5
29D
102
{ACAD_REACTORS
330
32E
102
}
330
1F
100
AcDbEntity
  8
0
  6
Continuous
 62
     7
100
AcDbCircle
 10
-56.53270952585268
 20
45.9729400432738
 30
0.0
 40
3.0
100
AcDbArc
 50
0.0
 51
90.0
  0
ARC
  5
29E
330
1F
100
AcDbEntity
  8
0
  6
Continuous
 62
     7
100
AcDbCircle
 10
-61.78270952585262
 20
126.1229400432737
 30
0.0
 40
0.5
100
AcDbArc
 50
180.0
 51
270.0
  0
ARC
  5
29F
102
{ACAD_REACTORS
330
329
102
}
330
1F
100
AcDbEntity
  8
0
  6
Continuous
 62
     7
100
AcDbCircle
 10
-71.53270952585274
 20
134.122940043274
 30
0.0
 40
2.25
100
AcDbArc
 50
90.0
 51
180.0
  0
ARC
  5
2A0
330
1F
100
AcDbEntity
  8
0
  6
Continuous
 62
     7
100
AcDbCircle
 10
-71.03270952585274
 20
133.622940043274
 30
0.0
 40
1.5
100
AcDbArc
 50
90.0
 51
180.0
  0
ARC
  5
2A1
330
1F
100
AcDbEntity
  8
0
  6
Continuous
 62
     7
100
AcDbCircle
 10
-60.08270952585275
 20
128.1229400432737
 30
0.0
 40
0.5
100
AcDbArc
 50
180.0
 51
270.0
  0
ARC
  5
2A2
330
1F
100
AcDbEntity
  8
0
  6
Continuous
 62
     7
100
AcDbCircle
 10
-66.83270952585275
 20
119.322940043274
 30
0.0
 40
0.2000000000000028
100
AcDbArc
 50
90.0
 51
180.0
  0
ARC
  5
2A3
330
1F
100
AcDbEntity
  8
0
  6
Continuous
 62
     7
100
AcDbCircle
 10
-61.23270952585261
 20
119.322940043274
 30
0.0
 40
0.1999999999999957
100
AcDbArc
 50
0.0
 51
90.0
  0
ARC
  5
2A4
330
1F
100
AcDbEntity
  8
0
  6
Continuous
 62
     7
100
AcDbCircle
 10
-57.03270952585274
 20
119.622940043274
 30
0.0
 40
1.5
100
AcDbArc
 50
270.0
 51
0.0
  0
ARC
  5
2A5
102
{ACAD_REACTORS
330
329
102
}
330
1F
100
AcDbEntity
  8
0
  6
Continuous
 62
     7
100
AcDbCircle
 10
-56.53270952585274
 20
134.122940043274
 30
0.0
 40
2.25
100
AcDbArc
 50
0.0
 51
90.0
  0
ARC
  5
2A6
330
1F
100
AcDbEntity
  8
0
  6
Continuous
 62
     7
100
AcDbCircle
 10
-57.03270952585274
 20
133.622940043274
 30
0.0
 40
1.5
100
AcDbArc
 50
0.0
 51
90.0
  0
ARC
  5
2A7
102
{ACAD_REACTORS
330
329
102
}
330
1F
100
AcDbEntity
  8
0
  6
Continuous
 62
     7
100
AcDbCircle
 10
-56.53270952585274
 20
119.122940043274
 30
0.0
 40
2.25
100
AcDbArc
 50
270.0
 51
0.0
  0
ARC
  5
2A8
102
{ACAD_REACTORS
330
329
102
}
330
1F
100
AcDbEntity
  8
0
  6
Continuous
 62
     7
100
AcDbCircle
 10
-71.53270952585274
 20
119.122940043274
 30
0.0
 40
2.25
100
AcDbArc
 50
180.0
 51
270.0
  0
ARC
  5
2A9
330
1F
100
AcDbEntity
  8
0
  6
Continuous
 62
     7
100
AcDbCircle
 10
-71.03270952585274
 20
119.622940043274
 30
0.0
 40
1.5
100
AcDbArc
 50
180.0
 51
270.0
  0
ARC
  5
2AA
330
1F
100
AcDbEntity
  8
0
  6
Continuous
 62
     7
100
AcDbCircle
 10
-67.98270952585261
 20
128.1229400432737
 30
0.0
 40
0.5
100
AcDbArc
 50
270.0
 51
0.0
  0
ARC
  5
2AB
330
1F
100
AcDbEntity
  8
0
  6
Continuous
 62
     7
100
AcDbCircle
 10
-66.28270952585262
 20
126.1229400432737
 30
0.0
 40
0.5
100
AcDbArc
 50
270.0
 51
0.0
  0
ARC
  5
2AC
330
1F
100
AcDbEntity
  8
0
  6
Continuous
 62
     7
100
AcDbCircle
 10
-64.03270952585268
 20
79.99294004327454
 30
0.0
 40
2.799999999999638
100
AcDbArc
 50
53.21321070173343
 51
216.7867892982695
  0
ARC
  5
2AD
330
1F
100
AcDbEntity
  8
0
  6
Continuous
 62
     7
100
AcDbCircle
 10
-64.03270952585268
 20
79.99294004327454
 30
0.0
 40
2.800000000000298
100
AcDbArc
 50
233.2132107017435
 51
36.78678929825245
  0
ARC
  5
2AE
330
1F
100
AcDbEntity
  8
0
  6
Continuous
 62
     7
100
AcDbCircle
 10
-64.03270952585268
 20
79.99294004327454
 30
0.0
 40
2.799999999999708
100
AcDbArc
 50
36.78678929825245
 51
53.21321070173343
  0
ARC
  5
2AF
330
1F
100
AcDbEntity
  8
0
  6
Continuous
 62
     7
100
AcDbCircle
 10
-64.03270952585268
 20
79.99294004327454
 30
0.0
 40
2.800000000000206
100
AcDbArc
 50
216.7867892982695
 51
233.2132107017435
  0
ARC
  5
2B0
102
{ACAD_REACTORS
330
32B
102
}
330
1F
100
AcDbEntity
  8
1
  6
Continuous
 62
     7
100
AcDbCircle
 10
-9.86269988272437
 20
7.86560865601728
 30
0.0
 40
0.1324831062376642
100
AcDbArc
 50
30.00000000001384
 51
180.0
  0
ARC
  5
2B1
102
{ACAD_REACTORS
330
32B
102
}
330
1F
100
AcDbEntity
  8
1
  6
Continuous
 62
     7
100
AcDbCircle
 10
-9.82851632229534
 20
5.42379253631645
 30
0.0
 40
0.1666666666666856
100
AcDbArc
 50
180.0
 51
0.0
  0
ARC
  5
2B2
102
{ACAD_REACTORS
330
32B
102
}
330
1F
100
AcDbEntity
  8
1
  6
Continuous
 62
     7
100
AcDbCircle
 10
-8.49518298896197
 20
4.6541345353009
 30
0.0
 40
0.1666666666666856
100
AcDbArc
 50
180.0
 51
0.0
  0
ARC
  5
2B3
102
{ACAD_REACTORS
330
32B
102
}
330
1F
100
AcDbEntity
  8
1
  6
Continuous
 62
     7
100
AcDbCircle
 10
-8.460999428533
 20
7.86560865601728
 30
0.0
 40
0.1324831062376557
100
AcDbArc
 50
0.0
 51
149.9999999999743
  0
ARC
  5
2B4
102
{ACAD_REACTORS
330
32C
102
}
330
1F
100
AcDbEntity
  8
1
  6
Continuous
 62
     7
100
AcDbCircle
 10
-10.49518298896203
 20
7.46125008008369
 30
0.0
 40
0.1666666666666909
100
AcDbArc
 50
0.0
 51
180.0
  0
ARC
  5
2B5
102
{ACAD_REACTORS
330
32C
102
}
330
1F
100
AcDbEntity
  8
1
  6
Continuous
 62
     7
100
AcDbCircle
 10
-9.32851632229534
 20
4.36567299683935
 30
0.0
 40
0.1666666666666837
100
AcDbArc
 50
240.0183606311504
 51
60.01836063114937
  0
ARC
  5
2B6
102
{ACAD_REACTORS
330
32A
102
}
330
1F
100
AcDbEntity
  8
1
  6
Continuous
 62
     7
100
AcDbCircle
 10
-11.16184965562866
 20
7.07663469546833
 30
0.0
 40
0.1666666666666305
100
AcDbArc
 50
0.0
 51
180.0
  0
ARC
  5
2B7
102
{ACAD_REACTORS
330
32A
102
}
330
1F
100
AcDbEntity
  8
1
  6
Continuous
 62
     7
100
AcDbCircle
 10
-11.16184965562866
 20
5.42336530453161
 30
0.0
 40
0.1666666666666785
100
AcDbArc
 50
180.0
 51
0.0
  0
ARC
  5
2B8
102
{ACAD_REACTORS
330
32D
102
}
330
1F
100
AcDbEntity
  8
1
  6
Continuous
 62
     7
100
AcDbCircle
 10
-7.16184965562865
 20
7.07663469546833
 30
0.0
 40
0.1666666666666886
100
AcDbArc
 50
240.0183606311493
 51
60.01836063115717
  0
ARC
  5
2B9
102
{ACAD_REACTORS
330
32D
102
}
330
1F
100
AcDbEntity
  8
1
  6
Continuous
 62
     7
100
AcDbCircle
 10
-7.16184965562865
 20
6.25
 30
0.0
 40
0.1666666666666847
100
AcDbArc
 50
270.0
 51
90.0
  0
ARC
  5
2BA
102
{ACAD_REACTORS
330
32D
102
}
330
1F
100
AcDbEntity
  8
1
  6
Continuous
 62
     7
100
AcDbCircle
 10
-7.16184965562865
 20
5.42336530453161
 30
0.0
 40
0.1666666666666572
100
AcDbArc
 50
299.9816393688326
 51
119.9816393688413
  0
ARC
  5
2BB
102
{ACAD_REACTORS
330
32E
102
}
330
1F
100
AcDbEntity
  8
1
  6
Continuous
 62
     7
100
AcDbCircle
 10
-64.03270952585268
 20
31.87460670994242
 30
0.0
 40
5.601666666668533
100
AcDbArc
 50
285.3565867633152
 51
299.9901582583411
  0
ARC
  5
2BC
102
{ACAD_REACTORS
330
32E
102
}
330
1F
100
AcDbEntity
  8
1
  6
Continuous
 62
     7
100
AcDbCircle
 10
-64.03270952585268
 20
31.87460670994242
 30
0.0
 40
5.601666666668537
100
AcDbArc
 50
240.0098417416589
 51
254.6434132366848
  0
ARC
  5
2BD
330
1F
100
AcDbEntity
  8
1
  6
Continuous
 62
     7
100
AcDbCircle
 10
-64.03270952585268
 20
31.87460670994242
 30
0.0
 40
5.601666666668534
100
AcDbArc
 50
254.6434132366848
 51
285.3565867633152
  0
CIRCLE
  5
2BE
330
1F
100
AcDbEntity
  8
0
  6
Continuous
 62
     7
100
AcDbCircle
 10
-64.03270952585268
 20
45.3229400432738
 30
0.0
 40
2.099999999999999
  0
CIRCLE
  5
2BF
330
1F
100
AcDbEntity
  8
0
  6
Continuous
 62
     7
100
AcDbCircle
 10
-59.0327095258528
 20
41.12294004327389
 30
0.0
 40
2.100000000000035
  0
CIRCLE
  5
2C0
330
1F
100
AcDbEntity
  8
0
  6
Continuous
 62
     7
100
AcDbCircle
 10
-59.2404964018084
 20
35.7720949182041
 30
0.0
 40
2.100000000000059
  0
CIRCLE
  5
2C1
330
1F
100
AcDbEntity
  8
0
  6
Continuous
 62
     7
100
AcDbCircle
 10
-68.8249226498969
 20
35.7720949182041
 30
0.0
 40
2.100000000000003
  0
CIRCLE
  5
2C2
330
1F
100
AcDbEntity
  8
0
  6
Continuous
 62
     7
100
AcDbCircle
 10
-69.03270952585268
 20
41.12294004327389
 30
0.0
 40
2.099999999999992
  0
CIRCLE
  5
2C3
330
1F
100
AcDbEntity
  8
1
  6
Continuous
 62
     7
100
AcDbCircle
 10
-65.73097340505461
 20
42.724668322286
 30
0.0
 40
0.850871774353152
  0
CIRCLE
  5
2C4
330
1F
100
AcDbEntity
  8
1
  6
Continuous
 62
     4
100
AcDbCircle
 10
-64.03270952585291
 20
129.704459886597
 30
0.0
 40
1.000431256747049
  0
CIRCLE
  5
2C5
330
1F
100
AcDbEntity
  8
0
  6
Continuous
 62
     7
100
AcDbCircle
 10
-59.03270952585274
 20
129.7229400432738
 30
0.0
 40
0.9499999999999192
  0
CIRCLE
  5
2C6
330
1F
100
AcDbEntity
  8
0
  6
Continuous
 62
     7
100
AcDbCircle
 10
-59.03270952585274
 20
123.5229400432737
 30
0.0
 40
0.9499999999999619
  0
CIRCLE
  5
2C7
330
1F
100
AcDbEntity
  8
0
  6
Continuous
 62
     7
100
AcDbCircle
 10
-64.03270952585274
 20
132.1729400432738
 30
0.0
 40
0.9499999999998749
  0
CIRCLE
  5
2C8
330
1F
100
AcDbEntity
  8
0
  6
Continuous
 62
     7
100
AcDbCircle
 10
-69.03270952585274
 20
129.7229400432738
 30
0.0
 40
0.9499999999999886
  0
CIRCLE
  5
2C9
330
1F
100
AcDbEntity
  8
0
  6
Continuous
 62
     7
100
AcDbCircle
 10
-69.03270952585274
 20
123.5229400432737
 30
0.0
 40
0.9499999999999129
  0
CIRCLE
  5
2CA
330
1F
100
AcDbEntity
  8
1
  6
Continuous
 62
     7
100
AcDbCircle
 10
-53.03433487542783
 20
4.4
 30
0.0
 40
1.247468231122589
  0
ARC
  5
2CB
102
{ACAD_REACTORS
330
320
102
}
330
1F
100
AcDbEntity
  8
1
  6
Continuous
 62
     2
100
AcDbCircle
 10
-64.03270952585268
 20
35.5926483560006
 30
0.0
 40
0.0499999999999802
100
AcDbArc
 50
30.00000000000186
 51
149.9999999999982
  0
ARC
  5
2CC
102
{ACAD_REACTORS
330
31F
102
}
330
1F
100
AcDbEntity
  8
1
  6
Continuous
 62
     2
100
AcDbCircle
 10
-63.33270952585269
 20
36.3616420115908
 30
0.0
 40
0.1999999999999318
100
AcDbArc
 50
0.0
 51
60.01836063116199
  0
ARC
  5
2CD
330
1F
100
AcDbEntity
  8
1
  6
Continuous
 62
     2
100
AcDbCircle
 10
-61.53276506598473
 20
35.6926483560006
 30
0.0
 40
0.0500000000000177
100
AcDbArc
 50
299.9816393688257
 51
60.01836063114171
  0
ARC
  5
2CE
330
1F
100
AcDbEntity
  8
1
  6
Continuous
 62
     2
100
AcDbCircle
 10
-66.53265398572074
 20
35.6926483560006
 30
0.0
 40
0.049999999999972
100
AcDbArc
 50
119.9816393688653
 51
240.0183606311672
  0
ARC
  5
2CF
102
{ACAD_REACTORS
330
321
102
}
330
1F
100
AcDbEntity
  8
1
  6
Continuous
 62
     2
100
AcDbCircle
 10
-64.83270952585269
 20
34.96589830795035
 30
0.0
 40
0.0999999999999933
100
AcDbArc
 50
240.018360631151
 51
0.0
  0
ARC
  5
2D0
102
{ACAD_REACTORS
330
321
102
}
330
1F
100
AcDbEntity
  8
1
  6
Continuous
 62
     2
100
AcDbCircle
 10
-64.83270952585269
 20
36.4193984040508
 30
0.0
 40
0.0999999999999659
100
AcDbArc
 50
0.0
 51
119.9816393688531
  0
ARC
  5
2D1
330
1F
100
AcDbEntity
  8
1
  6
Continuous
 62
     7
100
AcDbCircle
 10
-65.73270952585261
 20
38.87294004327379
 30
0.0
 40
1.0
100
AcDbArc
 50
180.0
 51
270.0
  0
ARC
  5
2D2
330
1F
100
AcDbEntity
  8
1
  6
Continuous
 62
     7
100
AcDbCircle
 10
-62.33270952585275
 20
38.87294004327379
 30
0.0
 40
1.0
100
AcDbArc
 50
270.0
 51
0.0
  0
ARC
  5
2D3
102
{ACAD_REACTORS
330
327
102
}
330
1F
100
AcDbEntity
  8
1
  6
Continuous
 62
     7
100
AcDbCircle
 10
-11.6827095258524
 20
68.842940043274
 30
0.0
 40
0.3000000000000203
100
AcDbArc
 50
0.0
 51
90.0
  0
ARC
  5
2D4
102
{ACAD_REACTORS
330
327
102
}
330
1F
100
AcDbEntity
  8
1
  6
Continuous
 62
     7
100
AcDbCircle
 10
-11.6827095258524
 20
67.14294004327401
 30
0.0
 40
0.2999999999998977
100
AcDbArc
 50
270.0000000000536
 51
0.0
  0
ARC
  5
2D5
102
{ACAD_REACTORS
330
327
102
}
330
1F
100
AcDbEntity
  8
1
  6
Continuous
 62
     7
100
AcDbCircle
 10
-35.08270952585193
 20
67.14294004327412
 30
0.0
 40
0.3000000000000114
100
AcDbArc
 50
180.0
 51
269.9999999999254
  0
ARC
  5
2D6
102
{ACAD_REACTORS
330
327
102
}
330
1F
100
AcDbEntity
  8
1
  6
Continuous
 62
     7
100
AcDbCircle
 10
-35.08270952585193
 20
68.84294004327411
 30
0.0
 40
0.2999999999998977
100
AcDbArc
 50
90.00000000007464
 51
180.0000000000217
  0
ARC
  5
2D7
102
{ACAD_REACTORS
330
328
102
}
330
1F
100
AcDbEntity
  8
1
  6
Continuous
 62
     7
100
AcDbCircle
 10
-75.73270952585256
 20
68.84294004327411
 30
0.0
 40
0.3000000000000114
100
AcDbArc
 50
90.0
 51
180.0
  0
ARC
  5
2D8
102
{ACAD_REACTORS
330
328
102
}
330
1F
100
AcDbEntity
  8
1
  6
Continuous
 62
     7
100
AcDbCircle
 10
-75.73270952585256
 20
67.14294004327412
 30
0.0
 40
0.3000000000000114
100
AcDbArc
 50
180.0
 51
270.0
  0
ARC
  5
2D9
102
{ACAD_REACTORS
330
328
102
}
330
1F
100
AcDbEntity
  8
1
  6
Continuous
 62
     7
100
AcDbCircle
 10
-52.33270952585275
 20
67.14294004327412
 30
0.0
 40
0.3000000000000114
100
AcDbArc
 50
270.0
 51
0.0
  0
ARC
  5
2DA
102
{ACAD_REACTORS
330
328
102
}
330
1F
100
AcDbEntity
  8
1
  6
Continuous
 62
     7
100
AcDbCircle
 10
-52.33270952585275
 20
68.84294004327411
 30
0.0
 40
0.3000000000001677
100
AcDbArc
 50
359.9999999999783
 51
89.99999999994844
  0
ARC
  5
2DB
102
{ACAD_REACTORS
330
329
102
}
330
1F
100
AcDbEntity
  8
1
  6
Continuous
 62
     7
100
AcDbCircle
 10
-56.03270952585274
 20
118.622940043274
 30
0.0
 40
4.0
100
AcDbArc
 50
270.0
 51
0.0
  0
ARC
  5
2DC
102
{ACAD_REACTORS
330
329
102
}
330
1F
100
AcDbEntity
  8
1
  6
Continuous
 62
     7
100
AcDbCircle
 10
-72.03270952585274
 20
118.622940043274
 30
0.0
 40
3.999999999999957
100
AcDbArc
 50
180.0
 51
270.0000000000006
  0
ARC
  5
2DD
102
{ACAD_REACTORS
330
329
102
}
330
1F
100
AcDbEntity
  8
1
  6
Continuous
 62
     7
100
AcDbCircle
 10
-72.03270952585285
 20
134.6229400432741
 30
0.0
 40
4.0
100
AcDbArc
 50
90.0
 51
180.0
  0
ARC
  5
2DE
102
{ACAD_REACTORS
330
329
102
}
330
1F
100
AcDbEntity
  8
1
  6
Continuous
 62
     7
100
AcDbCircle
 10
-56.03270952585274
 20
134.6229400432741
 30
0.0
 40
4.000000000000036
100
AcDbArc
 50
0.0
 51
90.0
  0
ARC
  5
2DF
102
{ACAD_REACTORS
330
32E
102
}
330
1F
100
AcDbEntity
  8
1
  6
Continuous
 62
     7
100
AcDbCircle
 10
-72.0327095258528
 20
46.47294004327394
 30
0.0
 40
4.0
100
AcDbArc
 50
90.0
 51
180.0
  0
ARC
  5
2E0
102
{ACAD_REACTORS
330
32E
102
}
330
1F
100
AcDbEntity
  8
1
  6
Continuous
 62
     7
100
AcDbCircle
 10
-72.03270952585268
 20
30.47294004327387
 30
0.0
 40
4.0
100
AcDbArc
 50
180.0
 51
270.0
  0
ARC
  5
2E1
102
{ACAD_REACTORS
330
32E
102
}
330
1F
100
AcDbEntity
  8
1
  6
Continuous
 62
     7
100
AcDbCircle
 10
-56.0327095258527
 20
30.47294004327387
 30
0.0
 40
4.0
100
AcDbArc
 50
270.0
 51
0.0
  0
ARC
  5
2E2
102
{ACAD_REACTORS
330
32E
102
}
330
1F
100
AcDbEntity
  8
1
  6
Continuous
 62
     7
100
AcDbCircle
 10
-56.03270952585269
 20
46.47294004327394
 30
0.0
 40
4.0
100
AcDbArc
 50
0.0
 51
90.0
  0
ARC
  5
2E3
102
{ACAD_REACTORS
330
32B
102
}
330
1F
100
AcDbEntity
  8
1
  6
Continuous
 62
     7
100
AcDbCircle
 10
-9.16184965562866
 20
6.41666666666663
 30
0.0
 40
0.0833333333333545
100
AcDbArc
 50
209.9999999999622
 51
330.0000000000177
  0
ARC
  5
2E4
102
{ACAD_REACTORS
330
32C
102
}
330
1F
100
AcDbEntity
  8
1
  6
Continuous
 62
     7
100
AcDbCircle
 10
-10.32851632229534
 20
5.13501057401635
 30
0.0
 40
0.3333333333333215
100
AcDbArc
 50
180.0000000000104
 51
240.0183606311564
  0
ARC
  5
2E5
330
1F
100
AcDbEntity
  8
1
  6
Continuous
 62
     7
100
AcDbCircle
 10
-13.32842375540861
 20
6.25
 30
0.0
 40
0.0833333333333053
100
AcDbArc
 50
119.9816393688866
 51
240.0183606311338
  0
ARC
  5
2E6
330
1F
100
AcDbEntity
  8
1
  6
Continuous
 62
     7
100
AcDbCircle
 10
-4.99527555584871
 20
6.25
 30
0.0
 40
0.0833333333333293
100
AcDbArc
 50
299.9816393688334
 51
60.01836063114615
  0
ARC
  5
2E7
102
{ACAD_REACTORS
330
32D
102
}
330
1F
100
AcDbEntity
  8
1
  6
Continuous
 62
     7
100
AcDbCircle
 10
-7.82851632229534
 20
7.46125008008369
 30
0.0
 40
0.1666666666666874
100
AcDbArc
 50
60.01836063114941
 51
180.0
  0
ARC
  5
2E8
102
{ACAD_REACTORS
330
32D
102
}
330
1F
100
AcDbEntity
  8
1
  6
Continuous
 62
     7
100
AcDbCircle
 10
-7.82851632229534
 20
5.03874991991631
 30
0.0
 40
0.1666666666666252
100
AcDbArc
 50
180.0
 51
299.9816393688506
  0
ARC
  5
2E9
330
1F
100
AcDbEntity
  8
1
  6
Continuous
 62
     7
100
AcDbCircle
 10
-62.23270952585267
 20
28.7972041119856
 30
0.0
 40
0.3000000000000114
100
AcDbArc
 50
180.0
 51
225.0
  0
ARC
  5
2EA
330
1F
100
AcDbEntity
  8
1
  6
Continuous
 62
     7
100
AcDbCircle
 10
-65.83270952585269
 20
28.7972041119856
 30
0.0
 40
0.3000000000000748
100
AcDbArc
 50
315.0000000000077
 51
0.0
  0
MTEXT
  5
2EC
330
1F
100
AcDbEntity
  8
1
 62
     7
100
AcDbMText
 10
-97.0000000000001
 20
75.74999999999993
 30
0.0
 40
2.0
 41
0.0
 71
     5
 72
     1
  1
Diritti riservati      All rights reserved
  7
CONVERTER_11
 11
0.0
 21
1.0
 31
0.0
 73
     1
 44
1.32052821128451
  0
MTEXT
  5
2ED
330
1F
100
AcDbEntity
  8
1
 62
     7
100
AcDbMText
 10
-88.20000000000009
 20
4.37499999999999
 30
0.0
 40
1.5
 41
0.0
 71
     4
 72
     1
  1
T.Tedeschi
  7
CONVERTER_11
 73
     1
 44
1.32052821128451
  0
MTEXT
  5
2EE
330
1F
100
AcDbEntity
  8
1
 62
     7
100
AcDbMText
 10
-93.50000000000004
 20
4.37499999999999
 30
0.0
 40
1.5
 41
0.0
 71
     4
 72
     1
  1
Sign.
  7
CONVERTER_11
 73
     1
 44
1.32052821128451
  0
MTEXT
  5
2EF
330
1F
100
AcDbEntity
  8
1
 62
     7
100
AcDbMText
 10
-88.20000000000009
 20
8.13031971037798
 30
0.0
 40
1.5
 41
0.0
 71
     4
 72
     1
  1
01/02/07
  7
CONVERTER_11
 73
     1
 44
1.32052821128451
  0
MTEXT
  5
2F0
330
1F
100
AcDbEntity
  8
1
 62
     7
100
AcDbMText
 10
-93.50000000000004
 20
8.13031971037798
 30
0.0
 40
1.5
 41
0.0
 71
     4
 72
     1
  1
Date
  7
CONVERTER_11
 73
     1
 44
1.32052821128451
  0
MTEXT
  5
2F1
330
1F
100
AcDbEntity
  8
1
 62
     7
100
AcDbMText
 10
-20.16184965562864
 20
8.13031971037798
 30
0.0
 40
1.5
 41
0.0
 71
     5
 72
     1
  1
Scale
  7
CONVERTER_11
 73
     1
 44
1.32052821128451
  0
MTEXT
  5
2F2
330
1F
100
AcDbEntity
  8
1
 62
     7
100
AcDbMText
 10
-20.16184965562864
 20
5.03031971037802
 30
0.0
 40
2.25
 41
0.0
 71
     5
 72
     1
  1
2:1
  7
CONVERTER_11
 73
     1
 44
1.32052821128451
  0
MTEXT
  5
2F4
330
1F
100
AcDbEntity
  8
1
 62
     7
100
AcDbMText
 10
-71.24771705554588
 20
34.1499029659302
 30
0.0
 40
1.3
 41
0.0
 71
     5
 72
     1
  1
4
  7
CONVERTER_12
 11
-1.0
 21
4.270088556250602E-17
 31
0.0
 73
     1
 44
0.84033613445378
  0
MTEXT
  5
2F5
330
1F
100
AcDbEntity
  8
1
 62
     7
100
AcDbMText
 10
-57.63270952584509
 20
43.68056383539541
 30
0.0
 40
1.3
 41
0.0
 71
     5
 72
     1
  1
2
  7
CONVERTER_12
 11
-1.0
 21
-3.416070845000480E-16
 31
0.0
 73
     1
 44
1.32052821128451
  0
MTEXT
  5
2F6
330
1F
100
AcDbEntity
  8
1
 62
     7
100
AcDbMText
 10
-70.43270952586028
 20
43.68056383539541
 30
0.0
 40
1.3
 41
0.0
 71
     5
 72
     1
  1
3
  7
CONVERTER_12
 11
-1.0
 21
-3.416070845000480E-16
 31
0.0
 73
     1
 44
1.32052821128451
  0
MTEXT
  5
2F7
330
1F
100
AcDbEntity
  8
1
 62
     7
100
AcDbMText
 10
-56.81770199615943
 20
34.1499029659302
 30
0.0
 40
1.3
 41
0.0
 71
     5
 72
     1
  1
1
  7
CONVERTER_12
 11
-1.0
 21
4.270088556250602E-17
 31
0.0
 73
     1
 44
0.84033613445378
  0
MTEXT
  5
2F8
330
1F
100
AcDbEntity
  8
1
 62
     4
100
AcDbMText
 10
-71.43270952585266
 20
129.7229400432739
 30
0.0
 40
1.3
 41
0.0
 71
     5
 72
     1
  1
4
  7
CONVERTER_12
 73
     1
 44
0.84033613445378
  0
MTEXT
  5
2F9
330
1F
100
AcDbEntity
  8
1
 62
     4
100
AcDbMText
 10
-71.43270952585266
 20
123.5229400432738
 30
0.0
 40
1.3
 41
0.0
 71
     5
 72
     1
  1
3
  7
CONVERTER_12
 73
     1
 44
1.32052821128451
  0
MTEXT
  5
2FA
330
1F
100
AcDbEntity
  8
1
 62
     4
100
AcDbMText
 10
-56.63270952585276
 20
123.5229400432738
 30
0.0
 40
1.3
 41
0.0
 71
     5
 72
     1
  1
2
  7
CONVERTER_12
 73
     1
 44
1.32052821128451
  0
MTEXT
  5
2FB
330
1F
100
AcDbEntity
  8
1
 62
     4
100
AcDbMText
 10
-56.63270952585276
 20
129.7229400432739
 30
0.0
 40
1.3
 41
0.0
 71
     5
 72
     1
  1
1
  7
CONVERTER_12
 73
     1
 44
0.84033613445378
  0
MTEXT
  5
2FC
330
1F
100
AcDbEntity
  8
1
 62
     7
100
AcDbMText
 10
-76.36
 20
6.25
 30
0.0
 40
2.25
 41
0.0
 71
     4
 72
     1
  1
CKSM 04\Pmale insert spring 4P+        10A 400V
  7
CONVERTER_11
 73
     1
 44
0.90036014405762
  0
DIMENSION
  5
307
330
1F
100
AcDbEntity
  8
1
100
AcDbDimension
  2
*D2
 10
-84.1418695499268
 20
94.49294004327406
 30
0.0
 11
-85.9668695499268
 21
78.74294004327393
 31
0.0
 70
    32
  1
<>
 71
     5
 42
-1.0
 53
90.0
  3
ME10_DIM_10
100
AcDbAlignedDimension
 13
-74.53270952585268
 23
62.99294004327381
 33
0.0
 14
-74.53270952585268
 24
94.49294004327406
 34
0.0
 50
90.0
100
AcDbRotatedDimension
  0
DIMENSION
  5
312
330
1F
100
AcDbEntity
  8
1
100
AcDbDimension
  2
*D3
 10
-74.53270952585268
 20
100.994807995181
 30
0.0
 11
-64.03270952585268
 21
102.744807995181
 31
0.0
 70
    32
  1
<>
 71
     5
 42
-1.0
 53
0.00013888888889
  3
ME10_DIM_11
100
AcDbAlignedDimension
 13
-53.5327095258527
 23
94.4929400432737
 33
0.0
 14
-74.53270952585268
 24
94.49294004327406
 34
0.0
100
AcDbRotatedDimension
  0
DIMENSION
  5
31D
330
1F
100
AcDbEntity
  8
1
100
AcDbDimension
  2
*D4
 10
-33.88270952585285
 20
100.994807995181
 30
0.0
 11
-23.38270952585293
 21
102.744807995181
 31
0.0
 70
    32
  1
<>
 71
     5
 42
-1.0
 53
0.00013888888889
  3
ME10_DIM_12
100
AcDbAlignedDimension
 13
-12.88270952585301
 23
94.492940043274
 33
0.0
 14
-33.88270952585285
 24
94.49294004327363
 34
0.0
100
AcDbRotatedDimension
  0
HATCH
  5
31E
330
1F
100
AcDbEntity
  8
1
  6
Continuous
 62
     2
100
AcDbHatch
 10
0.0
 20
0.0
 30
0.0
210
0.0
220
0.0
230
1.0
  2
SOLID
 70
     1
 71
     1
 91
        1
 92
        1
 93
        5
 72
     1
 10
-62.93270952585277
 20
35.19666753871955
 11
-62.93270952585277
 21
36.13087278082154
 72
     1
 10
-62.93270952585277
 20
36.13087278082154
 11
-62.93270952585277
 21
36.18862917328159
 72
     2
 10
-62.83270952585269
 20
36.18862917328159
 40
0.0999999999999659
 50
180.0
 51
360.0
 73
     0
 72
     1
 10
-62.73270952585273
 20
36.18862917328159
 11
-62.73270952585273
 21
35.19666753871955
 72
     2
 10
-62.83270952585269
 20
35.19666753871955
 40
0.1000000000000796
 50
0.0
 51
180.0
 73
     0
 97
        5
330
7A
330
7B
330
282
330
7C
330
281
 75
     0
 76
     1
 98
        1
 10
0.0
 20
0.0
  0
HATCH
  5
31F
330
1F
100
AcDbEntity
  8
1
  6
Continuous
 62
     2
100
AcDbHatch
 10
0.0
 20
0.0
 30
0.0
210
0.0
220
0.0
230
1.0
  2
SOLID
 70
     1
 71
     1
 91
        1
 92
        1
 93
        7
 72
     1
 10
-63.33270952585269
 20
34.96589830795035
 11
-63.33270952585269
 21
36.3616420115908
 72
     1
 10
-63.33270952585269
 20
36.3616420115908
 11
-63.98268177120173
 21
36.73662599929209
 72
     2
 10
-63.93270952585277
 20
36.82324455789695
 40
0.1000000000000648
 50
119.9816393688506
 51
299.981639368863
 73
     0
 72
     1
 10
-63.88273728050376
 20
36.90986311650185
 11
-63.23276503515484
 21
36.53487912880049
 72
     2
 10
-63.33270952585269
 20
36.3616420115908
 40
0.1999999999999318
 50
299.981639368838
 51
360.0
 73
     0
 72
     1
 10
-63.13270952585276
 20
36.3616420115908
 11
-63.13270952585276
 21
34.96589830795035
 72
     2
 10
-63.23270952585273
 20
34.96589830795035
 40
0.0999999999999659
 50
0.0
 51
180.0
 73
     0
 97
        7
330
77
330
78
330
280
330
79
330
2CC
330
76
330
27F
 75
     0
 76
     1
 98
        1
 10
0.0
 20
0.0
  0
HATCH
  5
320
330
1F
100
AcDbEntity
  8
1
  6
Continuous
 62
     2
100
AcDbHatch
 10
0.0
 20
0.0
 30
0.0
210
0.0
220
0.0
230
1.0
  2
SOLID
 70
     1
 71
     1
 91
        1
 92
        1
 93
       16
 72
     1
 10
-63.68103963093978
 20
34.6835382305189
 11
-64.03270952585268
 21
35.29264835600059
 72
     1
 10
-64.03270952585268
 20
35.29264835600059
 11
-64.3843794207657
 21
34.6835382305189
 72
     2
 10
-64.45321966211009
 20
34.7232831623902
 40
0.0794898637425945
 50
30.00000000002633
 51
180.0
 73
     0
 72
     1
 10
-64.53270952585268
 20
34.7232831623902
 11
-64.53270952585268
 21
36.65016763482004
 72
     2
 10
-64.43270952585277
 20
36.65016763482004
 40
0.1000000000000796
 50
180.0
 51
360.0
 73
     0
 72
     1
 10
-64.33270952585269
 20
36.65016763482004
 11
-64.33270952585275
 21
35.6926483560006
 72
     1
 10
-64.33270952585275
 20
35.6926483560006
 11
-64.33270952585269
 21
35.17303311372989
 72
     1
 10
-64.33270952585269
 20
35.17303311372989
 11
-64.07601079604188
 21
35.61764835600059
 72
     2
 10
-64.03270952585268
 20
35.5926483560006
 40
0.0499999999999802
 50
210.0000000000018
 51
329.9999999999981
 73
     0
 72
     1
 10
-63.98940825566348
 20
35.61764835600059
 11
-63.73270952585273
 21
35.17303311372989
 72
     1
 10
-63.73270952585273
 20
35.17303311372989
 11
-63.73270952585273
 21
35.6926483560006
 72
     1
 10
-63.73270952585273
 20
35.6926483560006
 11
-63.73270952585273
 21
36.1883728342107
 72
     2
 10
-63.63270952585276
 20
36.1883728342107
 40
0.1000000000000796
 50
180.0
 51
360.0
 73
     0
 72
     1
 10
-63.53270952585268
 20
36.1883728342107
 11
-63.53270952585268
 21
35.6926483560006
 72
     1
 10
-63.53270952585268
 20
35.6926483560006
 11
-63.53270952585268
 21
34.7232831623902
 72
     2
 10
-63.61219938959533
 20
34.7232831623902
 40
0.0794898637425946
 50
0.0
 51
149.9999999999941
 73
     0
 97
       16
330
70
330
75
330
27E
330
74
330
27D
330
73
330
67
330
68
330
2CB
330
69
330
6A
330
72
330
27C
330
71
330
6F
330
27B
 75
     0
 76
     1
 98
        1
 10
0.0
 20
0.0
  0
HATCH
  5
321
330
1F
100
AcDbEntity
  8
1
  6
Continuous
 62
     2
100
AcDbHatch
 10
0.0
 20
0.0
 30
0.0
210
0.0
220
0.0
230
1.0
  2
SOLID
 70
     1
 71
     1
 91
        1
 92
        1
 93
       14
 72
     1
 10
-64.88268177120165
 20
34.87927974934549
 11
-65.28268177120168
 21
35.11004898011469
 72
     2
 10
-65.23270952585273
 20
35.19666753871955
 40
0.0999999999999672
 50
119.981639368847
 51
299.9816393687825
 73
     0
 72
     1
 10
-65.18273728050389
 20
35.28328609732444
 11
-64.93270952585277
 21
35.139039315795
 72
     1
 10
-64.93270952585277
 20
35.139039315795
 11
-64.93270952585277
 21
35.5926483560006
 72
     1
 10
-64.93270952585277
 20
35.5926483560006
 11
-65.23270952585273
 21
35.5926483560006
 72
     2
 10
-65.23270952585273
 20
35.6926483560006
 40
0.0999999999999872
 50
90.0
 51
270.0
 73
     0
 72
     1
 10
-65.23270952585273
 20
35.79264835600059
 11
-64.93270952585277
 21
35.79264835600059
 72
     1
 10
-64.93270952585277
 20
35.79264835600059
 11
-64.93270952585277
 21
36.24625739620615
 72
     1
 10
-64.93270952585277
 20
36.24625739620615
 11
-65.18273728050389
 21
36.10201061467669
 72
     2
 10
-65.23270952585273
 20
36.18862917328159
 40
0.0999999999999994
 50
60.01836063121956
 51
240.018360631153
 73
     0
 72
     1
 10
-65.28268177120168
 20
36.27524773188645
 11
-64.88268177120165
 21
36.50601696265564
 72
     2
 10
-64.83270952585269
 20
36.4193984040508
 40
0.0999999999999659
 50
240.0183606311469
 51
360.0
 73
     0
 72
     1
 10
-64.73270952585273
 20
36.4193984040508
 11
-64.73270952585273
 21
34.96589830795035
 72
     2
 10
-64.83270952585269
 20
34.96589830795035
 40
0.0999999999999933
 50
0.0
 51
119.981639368849
 73
     0
 97
       14
330
7D
330
283
330
7E
330
7F
330
80
330
284
330
81
330
82
330
83
330
285
330
84
330
2D0
330
85
330
2CF
 75
     0
 76
     1
 98
        1
 10
0.0
 20
0.0
  0
HATCH
  5
322
330
1F
100
AcDbEntity
  8
1
  6
Continuous
 62
     2
100
AcDbHatch
 10
0.0
 20
0.0
 30
0.0
210
0.0
220
0.0
230
1.0
  2
SOLID
 70
     1
 71
     1
 91
        1
 92
        1
 93
        3
 72
     1
 10
-59.83270952585286
 20
44.37294004327401
 11
-59.03270952585285
 21
43.5229400432739
 72
     1
 10
-59.03270952585285
 20
43.5229400432739
 11
-58.2327095258529
 21
44.37294004327401
 72
     1
 10
-58.2327095258529
 20
44.37294004327401
 11
-59.83270952585286
 21
44.37294004327401
 97
        3
330
D2
330
D4
330
D3
 75
     0
 76
     1
 98
        1
 10
0.0
 20
0.0
  0
HATCH
  5
323
330
1F
100
AcDbEntity
  8
1
  6
Continuous
 62
     2
100
AcDbHatch
 10
0.0
 20
0.0
 30
0.0
210
0.0
220
0.0
230
1.0
  2
SOLID
 70
     1
 71
     1
 91
        1
 92
        1
 93
        3
 72
     1
 10
-69.83270952585247
 20
44.37294004327401
 11
-69.03270952585251
 21
43.5229400432739
 72
     1
 10
-69.03270952585251
 20
43.5229400432739
 11
-68.2327095258525
 21
44.37294004327401
 72
     1
 10
-68.2327095258525
 20
44.37294004327401
 11
-69.83270952585247
 21
44.37294004327401
 97
        3
330
D7
330
D5
330
D6
 75
     0
 76
     1
 98
        1
 10
0.0
 20
0.0
  0
HATCH
  5
324
330
1F
100
AcDbEntity
  8
1
  6
Continuous
 62
     2
100
AcDbHatch
 10
0.0
 20
0.0
 30
0.0
210
0.0
220
0.0
230
1.0
  2
SOLID
 70
     1
 71
     1
 91
        1
 92
        1
 93
        3
 72
     1
 10
-57.03020474225201
 20
33.2587086009628
 11
-58.13229973004439
 21
33.6432689185764
 72
     1
 10
-58.13229973004439
 20
33.6432689185764
 11
-58.44942207533717
 21
32.51991081978679
 72
     1
 10
-58.44942207533717
 20
32.51991081978679
 11
-57.03020474225201
 21
33.2587086009628
 97
        3
330
D9
330
DA
330
D8
 75
     0
 76
     1
 98
        1
 10
0.0
 20
0.0
  0
HATCH
  5
325
330
1F
100
AcDbEntity
  8
1
  6
Continuous
 62
     2
100
AcDbHatch
 10
0.0
 20
0.0
 30
0.0
210
0.0
220
0.0
230
1.0
  2
SOLID
 70
     1
 71
     1
 91
        1
 92
        1
 93
        3
 72
     1
 10
-63.23270952585273
 20
42.0729400432737
 11
-64.03270952585274
 21
42.92294004327379
 72
     1
 10
-64.03270952585274
 20
42.92294004327379
 11
-64.83270952585275
 21
42.0729400432737
 72
     1
 10
-64.83270952585275
 20
42.0729400432737
 11
-63.23270952585273
 21
42.0729400432737
 97
        3
330
E0
330
DE
330
DF
 75
     0
 76
     1
 98
        1
 10
0.0
 20
0.0
  0
HATCH
  5
326
330
1F
100
AcDbEntity
  8
1
  6
Continuous
 62
     2
100
AcDbHatch
 10
0.0
 20
0.0
 30
0.0
210
0.0
220
0.0
230
1.0
  2
SOLID
 70
     1
 71
     1
 91
        1
 92
        1
 93
        3
 72
     1
 10
-69.61599697636814
 20
32.51991081978682
 11
-69.93311932166097
 21
33.6432689185764
 72
     1
 10
-69.93311932166097
 20
33.6432689185764
 11
-71.03521430945335
 21
33.25870860096286
 72
     1
 10
-71.03521430945335
 20
33.25870860096286
 11
-69.61599697636814
 21
32.51991081978682
 97
        3
330
D1
330
CF
330
D0
 75
     0
 76
     1
 98
        1
 10
0.0
 20
0.0
  0
HATCH
  5
327
330
1F
100
AcDbEntity
  8
1
  6
Continuous
 62
     2
100
AcDbHatch
 10
0.0
 20
0.0
 30
0.0
210
0.0
220
0.0
230
1.0
  2
SOLID
 70
     1
 71
     1
 91
        1
 92
        1
 93
        8
 72
     1
 10
-11.6827095258524
 20
69.14294004327401
 11
-35.08270952585232
 21
69.14294004327401
 72
     2
 10
-35.08270952585193
 20
68.84294004327411
 40
0.2999999999998977
 50
90.00000000007464
 51
180.0000000000217
 73
     1
 72
     1
 10
-35.38270952585221
 20
68.842940043274
 11
-35.38270952585194
 21
67.14294004327412
 72
     2
 10
-35.08270952585193
 20
67.14294004327412
 40
0.3000000000000114
 50
180.0
 51
269.9999999999254
 73
     1
 72
     1
 10
-35.08270952585232
 20
66.842940043274
 11
-11.68270952585212
 21
66.84294004327411
 72
     2
 10
-11.6827095258524
 20
67.14294004327401
 40
0.2999999999998977
 50
270.0000000000536
 51
360.0
 73
     1
 72
     1
 10
-11.38270952585238
 20
67.14294004327401
 11
-11.38270952585238
 21
68.842940043274
 72
     2
 10
-11.6827095258524
 20
68.842940043274
 40
0.3000000000000203
 50
0.0
 51
90.0
 73
     1
 97
        8
330
EA
330
2D6
330
E9
330
2D5
330
EB
330
2D4
330
E8
330
2D3
 75
     0
 76
     1
 98
        1
 10
0.0
 20
0.0
  0
HATCH
  5
328
330
1F
100
AcDbEntity
  8
1
  6
Continuous
 62
     2
100
AcDbHatch
 10
0.0
 20
0.0
 30
0.0
210
0.0
220
0.0
230
1.0
  2
SOLID
 70
     1
 71
     1
 91
        1
 92
        1
 93
        8
 72
     1
 10
-52.33270952585248
 20
69.14294004327401
 11
-75.73270952585256
 21
69.14294004327412
 72
     2
 10
-75.73270952585256
 20
68.84294004327411
 40
0.3000000000000114
 50
90.0
 51
180.0
 73
     1
 72
     1
 10
-76.03270952585257
 20
68.84294004327411
 11
-76.03270952585257
 21
67.14294004327412
 72
     2
 10
-75.73270952585256
 20
67.14294004327412
 40
0.3000000000000114
 50
180.0
 51
270.0
 73
     1
 72
     1
 10
-75.73270952585256
 20
66.84294004327411
 11
-52.33270952585275
 21
66.84294004327411
 72
     2
 10
-52.33270952585275
 20
67.14294004327412
 40
0.3000000000000114
 50
270.0
 51
360.0
 73
     1
 72
     1
 10
-52.03270952585274
 20
67.14294004327412
 11
-52.03270952585258
 21
68.842940043274
 72
     2
 10
-52.33270952585275
 20
68.84294004327411
 40
0.3000000000001677
 50
359.9999999999783
 51
449.9999999999484
 73
     1
 97
        8
330
ED
330
2D7
330
EE
330
2D8
330
EC
330
2D9
330
EF
330
2DA
 75
     0
 76
     1
 98
        1
 10
0.0
 20
0.0
  0
HATCH
  5
329
330
1F
100
AcDbEntity
  8
1
  6
Continuous
 62
     2
100
AcDbHatch
 10
0.0
 20
0.0
 30
0.0
210
0.0
220
0.0
230
1.0
  2
SOLID
 70
     1
 71
     1
 91
        2
 92
        1
 93
        8
 72
     2
 10
-56.03270952585274
 20
134.6229400432741
 40
4.000000000000036
 50
0.0
 51
90.0
 73
     1
 72
     1
 10
-56.03270952585274
 20
138.6229400432741
 11
-72.03270952585285
 21
138.6229400432741
 72
     2
 10
-72.03270952585285
 20
134.6229400432741
 40
4.0
 50
90.0
 51
180.0
 73
     1
 72
     1
 10
-76.03270952585285
 20
134.6229400432741
 11
-76.0327095258527
 21
118.622940043274
 72
     2
 10
-72.03270952585274
 20
118.622940043274
 40
3.999999999999957
 50
180.0
 51
270.0000000000006
 73
     1
 72
     1
 10
-72.0327095258527
 20
114.622940043274
 11
-56.03270952585274
 21
114.622940043274
 72
     2
 10
-56.03270952585274
 20
118.622940043274
 40
4.0
 50
270.0
 51
360.0
 73
     1
 72
     1
 10
-52.03270952585274
 20
118.622940043274
 11
-52.0327095258527
 21
134.6229400432741
 97
        8
330
2DE
330
F2
330
2DD
330
F1
330
2DC
330
F0
330
2DB
330
F3
 92
       16
 93
       28
 72
     2
 10
-71.53270952585274
 20
119.122940043274
 40
2.25
 50
180.0
 51
270.0
 73
     1
 72
     1
 10
-71.53270952585274
 20
116.872940043274
 11
-56.53270952585274
 21
116.872940043274
 72
     2
 10
-56.53270952585274
 20
119.122940043274
 40
2.25
 50
270.0
 51
360.0
 73
     1
 72
     1
 10
-54.28270952585274
 20
119.122940043274
 11
-54.28270952585274
 21
122.122940043274
 72
     1
 10
-54.28270952585274
 20
122.122940043274
 11
-53.53270952585274
 21
122.122940043274
 72
     1
 10
-53.53270952585274
 20
122.122940043274
 11
-53.53270952585274
 21
125.1229400432735
 72
     1
 10
-53.53270952585274
 20
125.1229400432735
 11
-54.73270952585273
 21
125.1229400432735
 72
     1
 10
-54.73270952585273
 20
125.1229400432735
 11
-54.73270952585273
 21
128.1229400432735
 72
     1
 10
-54.73270952585273
 20
128.1229400432735
 11
-53.53270952585274
 21
128.1229400432736
 72
     1
 10
-53.53270952585274
 20
128.1229400432736
 11
-53.53270952585274
 21
131.1229400432739
 72
     1
 10
-53.53270952585274
 20
131.1229400432739
 11
-54.28270952585274
 21
131.1229400432739
 72
     1
 10
-54.28270952585274
 20
131.1229400432739
 11
-54.28270952585274
 21
134.122940043274
 72
     2
 10
-56.53270952585274
 20
134.122940043274
 40
2.25
 50
0.0
 51
90.0
 73
     1
 72
     1
 10
-56.53270952585274
 20
136.372940043274
 11
-61.03270952585274
 21
136.3729400432739
 72
     1
 10
-61.03270952585274
 20
136.3729400432739
 11
-61.03270952585274
 21
137.1229400432739
 72
     1
 10
-61.03270952585274
 20
137.1229400432739
 11
-67.03270952585274
 21
137.1229400432739
 72
     1
 10
-67.03270952585274
 20
137.1229400432739
 11
-67.03270952585274
 21
136.3729400432739
 72
     1
 10
-67.03270952585274
 20
136.3729400432739
 11
-71.53270952585274
 21
136.372940043274
 72
     2
 10
-71.53270952585274
 20
134.122940043274
 40
2.25
 50
90.0
 51
180.0
 73
     1
 72
     1
 10
-73.78270952585274
 20
134.122940043274
 11
-73.78270952585274
 21
131.1229400432739
 72
     1
 10
-73.78270952585274
 20
131.1229400432739
 11
-74.53270952585274
 21
131.1229400432739
 72
     1
 10
-74.53270952585274
 20
131.1229400432739
 11
-74.53270952585274
 21
128.122940043274
 72
     1
 10
-74.53270952585274
 20
128.122940043274
 11
-73.33270952585275
 21
128.122940043274
 72
     1
 10
-73.33270952585275
 20
128.122940043274
 11
-73.33270952585275
 21
125.122940043274
 72
     1
 10
-73.33270952585275
 20
125.122940043274
 11
-74.53270952585274
 21
125.122940043274
 72
     1
 10
-74.53270952585274
 20
125.122940043274
 11
-74.53270952585274
 21
122.122940043274
 72
     1
 10
-74.53270952585274
 20
122.122940043274
 11
-73.78270952585274
 21
122.122940043274
 72
     1
 10
-73.78270952585274
 20
122.122940043274
 11
-73.78270952585274
 21
119.122940043274
 97
       28
330
2A8
330
111
330
2A7
330
105
330
11F
330
11A
330
120
330
11C
330
121
330
11B
330
11E
330
10B
330
2A5
330
10C
330
100
330
10D
330
118
330
116
330
29F
330
F6
330
FB
330
FA
330
FC
330
F7
330
F9
330
103
330
104
330
101
 75
     0
 76
     1
 98
        1
 10
0.0
 20
0.0
  0
HATCH
  5
32A
330
1F
100
AcDbEntity
  8
1
  6
Continuous
 62
     7
100
AcDbHatch
 10
0.0
 20
0.0
 30
0.0
210
0.0
220
0.0
230
1.0
  2
SOLID
 70
     1
 71
     1
 91
        1
 92
        1
 93
        5
 72
     2
 10
-11.16184965562866
 20
7.07663469546833
 40
0.1666666666666305
 50
0.0
 51
180.0
 73
     1
 72
     1
 10
-11.32851632229534
 20
7.07663469546833
 11
-11.32851632229534
 21
5.423365304531615
 72
     2
 10
-11.16184965562866
 20
5.423365304531615
 40
0.1666666666666785
 50
180.0
 51
360.0
 73
     1
 72
     1
 10
-10.99518298896203
 20
5.423365304531615
 11
-10.99518298896203
 21
5.51962595863165
 72
     1
 10
-10.99518298896203
 20
5.51962595863165
 11
-10.99518298896203
 21
7.07663469546833
 97
        5
330
2B6
330
248
330
2B7
330
247
330
246
 75
     0
 76
     1
 98
        1
 10
0.0
 20
0.0
  0
HATCH
  5
32B
330
1F
100
AcDbEntity
  8
1
  6
Continuous
 62
     7
100
AcDbHatch
 10
0.0
 20
0.0
 30
0.0
210
0.0
220
0.0
230
1.0
  2
SOLID
 70
     1
 71
     1
 91
        1
 92
        1
 93
       16
 72
     2
 10
-8.460999428533
 20
7.865608656017285
 40
0.1324831062376557
 50
210.0000000000258
 51
360.0
 73
     0
 72
     1
 10
-8.328516322295345
 20
7.865608656017285
 11
-8.328516322295345
 21
4.654134535300898
 72
     2
 10
-8.49518298896197
 20
4.654134535300898
 40
0.1666666666666856
 50
0.0
 51
180.0
 73
     0
 72
     1
 10
-8.661849655628655
 20
4.654134535300898
 11
-8.661849655628655
 21
6.25
 72
     1
 10
-8.661849655628655
 20
6.25
 11
-8.661849655628655
 21
7.11602540378442
 72
     1
 10
-8.661849655628655
 20
7.11602540378442
 11
-9.089680871979965
 21
6.375
 72
     2
 10
-9.161849655628655
 20
6.41666666666663
 40
0.0833333333333545
 50
29.99999999998236
 51
150.0000000000378
 73
     0
 72
     1
 10
-9.234018439277405
 20
6.375
 11
-9.661849655628655
 21
7.11602540378442
 72
     1
 10
-9.661849655628655
 20
7.11602540378442
 11
-9.661849655628655
 21
6.25
 72
     1
 10
-9.661849655628655
 20
6.25
 11
-9.661849655628655
 21
5.423792536316455
 72
     2
 10
-9.828516322295345
 20
5.423792536316455
 40
0.1666666666666856
 50
0.0
 51
180.0
 73
     0
 72
     1
 10
-9.99518298896203
 20
5.423792536316455
 11
-9.99518298896203
 21
6.25
 72
     1
 10
-9.99518298896203
 20
6.25
 11
-9.99518298896203
 21
7.865608656017285
 72
     2
 10
-9.86269988272437
 20
7.865608656017285
 40
0.1324831062376642
 50
180.0
 51
329.9999999999862
 73
     0
 72
     1
 10
-9.747966147150295
 20
7.931850209136145
 11
-9.161849655628655
 21
6.91666666666663
 72
     1
 10
-9.161849655628655
 20
6.91666666666663
 11
-8.57573316410702
 21
7.931850209136145
 97
       16
330
23C
330
2B0
330
23B
330
23D
330
2B1
330
23E
330
236
330
235
330
2E3
330
234
330
233
330
23F
330
2B2
330
240
330
2B3
330
241
 75
     0
 76
     1
 98
        1
 10
0.0
 20
0.0
  0
HATCH
  5
32C
330
1F
100
AcDbEntity
  8
1
  6
Continuous
 62
     7
100
AcDbHatch
 10
0.0
 20
0.0
 30
0.0
210
0.0
220
0.0
230
1.0
  2
SOLID
 70
     1
 71
     1
 91
        1
 92
        1
 93
        7
 72
     2
 10
-10.49518298896203
 20
7.461250080083685
 40
0.1666666666666909
 50
0.0
 51
180.0
 73
     1
 72
     1
 10
-10.66184965562866
 20
7.461250080083685
 11
-10.66184965562866
 21
5.13501057401629
 72
     2
 10
-10.32851632229534
 20
5.13501057401635
 40
0.3333333333333215
 50
180.0000000000104
 51
240.0183606311564
 73
     1
 72
     1
 10
-10.49509047345851
 20
4.846282045333453
 11
-9.41180339787695
 21
4.221308732497903
 72
     2
 10
-9.328516322295345
 20
4.365672996839351
 40
0.1666666666666837
 50
240.0183606311504
 51
420.0183606311494
 73
     1
 72
     1
 10
-9.245229246713736
 20
4.510037261180798
 11
-10.32851632229534
 21
5.13501057401635
 72
     1
 10
-10.32851632229534
 20
5.13501057401635
 11
-10.32851632229534
 21
7.461250080083685
 97
        7
330
2B4
330
242
330
2E4
330
245
330
2B5
330
244
330
243
 75
     0
 76
     1
 98
        1
 10
0.0
 20
0.0
  0
HATCH
  5
32D
330
1F
100
AcDbEntity
  8
1
  6
Continuous
 62
     7
100
AcDbHatch
 10
0.0
 20
0.0
 30
0.0
210
0.0
220
0.0
230
1.0
  2
SOLID
 70
     1
 71
     1
 91
        1
 92
        1
 93
       14
 72
     2
 10
-7.828516322295345
 20
7.461250080083685
 40
0.1666666666666874
 50
60.01836063114941
 51
180.0
 73
     1
 72
     1
 10
-7.99518298896197
 20
7.461250080083685
 11
-7.99518298896197
 21
5.038749919916315
 72
     2
 10
-7.828516322295345
 20
5.038749919916315
 40
0.1666666666666252
 50
180.0
 51
299.9816393688506
 73
     1
 72
     1
 10
-7.745229246713735
 20
4.894385655574865
 11
-7.078562580047105
 21
5.279001040190165
 72
     2
 10
-7.161849655628655
 20
5.423365304531615
 40
0.1666666666666572
 50
299.9816393688326
 51
479.9816393688413
 73
     1
 72
     1
 10
-7.245136731210265
 20
5.56772956887312
 11
-7.661849655628655
 21
5.32731826632397
 72
     1
 10
-7.661849655628655
 20
5.32731826632397
 11
-7.661849655628655
 21
6.083333333333315
 72
     1
 10
-7.661849655628655
 20
6.083333333333315
 11
-7.161849655628655
 21
6.083333333333315
 72
     2
 10
-7.161849655628655
 20
6.25
 40
0.1666666666666847
 50
270.0
 51
450.0
 73
     1
 72
     1
 10
-7.161849655628655
 20
6.41666666666663
 11
-7.661849655628655
 21
6.41666666666663
 72
     1
 10
-7.661849655628655
 20
6.41666666666663
 11
-7.661849655628655
 21
7.17268173367597
 72
     1
 10
-7.661849655628655
 20
7.17268173367597
 11
-7.245136731210265
 21
6.93227043112688
 72
     2
 10
-7.161849655628655
 20
7.07663469546833
 40
0.1666666666666886
 50
240.0183606311493
 51
420.0183606311572
 73
     1
 72
     1
 10
-7.078562580047105
 20
7.22099895980972
 11
-7.745229246713735
 21
7.605614344425135
 97
       14
330
2E7
330
251
330
2E8
330
250
330
2BA
330
24F
330
24E
330
24D
330
2B9
330
24C
330
24B
330
24A
330
2B8
330
249
 75
     0
 76
     1
 98
        1
 10
0.0
 20
0.0
  0
HATCH
  5
32E
330
1F
100
AcDbEntity
  8
1
  6
Continuous
 62
     2
100
AcDbHatch
 10
0.0
 20
0.0
 30
0.0
210
0.0
220
0.0
230
1.0
  2
SOLID
 70
     1
 71
     1
 91
        1
 92
        1
 93
       26
 72
     2
 10
-56.03270952585269
 20
46.47294004327394
 40
4.0
 50
0.0
 51
90.0
 73
     1
 72
     1
 10
-56.03270952585269
 20
50.47294004327394
 11
-72.0327095258528
 21
50.47294004327394
 72
     2
 10
-72.0327095258528
 20
46.47294004327394
 40
4.0
 50
90.0
 51
180.0
 73
     1
 72
     1
 10
-76.0327095258528
 20
46.47294004327394
 11
-76.03270952585268
 21
30.47294004327387
 72
     2
 10
-72.03270952585268
 20
30.47294004327387
 40
4.0
 50
180.0
 51
270.0
 73
     1
 72
     1
 10
-72.03270952585268
 20
26.47294004327387
 11
-65.51617393953683
 21
26.47294004327387
 72
     2
 10
-64.03270952585268
 20
31.87460670994242
 40
5.601666666668537
 50
105.3565867633152
 51
119.9901582583411
 73
     0
 72
     1
 10
-66.83270952585269
 20
27.0229400432736
 11
-66.83270952585269
 21
27.37294004327362
 72
     1
 10
-66.83270952585269
 20
27.37294004327362
 11
-66.23270952585239
 21
27.9729400432739
 72
     1
 10
-66.23270952585239
 20
27.9729400432739
 11
-68.83270952585265
 21
27.9729400432739
 72
     1
 10
-68.83270952585265
 20
27.9729400432739
 11
-71.53270952585268
 21
27.9729400432739
 72
     2
 10
-71.53270952585268
 20
30.9729400432739
 40
3.000000000000014
 50
90.0
 51
180.0
 73
     0
 72
     1
 10
-74.5327095258527
 20
30.9729400432739
 11
-74.53270952585268
 21
45.9729400432738
 72
     2
 10
-71.53270952585268
 20
45.9729400432738
 40
3.000000000000099
 50
180.0
 51
269.9999999999997
 73
     0
 72
     1
 10
-71.5327095258527
 20
48.9729400432739
 11
-56.53270952585268
 21
48.9729400432738
 72
     2
 10
-56.53270952585268
 20
45.9729400432738
 40
3.0
 50
270.0
 51
360.0
 73
     0
 72
     1
 10
-53.53270952585268
 20
45.9729400432738
 11
-53.5327095258527
 21
30.9729400432739
 72
     2
 10
-56.5327095258527
 20
30.9729400432739
 40
3.0
 50
0.0
 51
90.0
 73
     0
 72
     1
 10
-56.5327095258527
 20
27.9729400432739
 11
-59.23270952585268
 21
27.9729400432739
 72
     1
 10
-59.23270952585268
 20
27.9729400432739
 11
-61.83270952585295
 21
27.9729400432739
 72
     1
 10
-61.83270952585295
 20
27.9729400432739
 11
-61.23270952585267
 21
27.37294004327362
 72
     1
 10
-61.23270952585267
 20
27.37294004327362
 11
-61.23270952585267
 21
27.0229400432736
 72
     2
 10
-64.03270952585268
 20
31.87460670994242
 40
5.601666666668533
 50
60.00984174165893
 51
74.64341323668485
 73
     0
 72
     1
 10
-62.54924511216854
 20
26.47294004327387
 11
-56.0327095258527
 21
26.47294004327387
 72
     2
 10
-56.0327095258527
 20
30.47294004327387
 40
4.0
 50
270.0
 51
360.0
 73
     1
 72
     1
 10
-52.0327095258527
 20
30.47294004327387
 11
-52.03270952585269
 21
46.47294004327394
 97
       26
330
2E2
330
21A
330
2DF
330
218
330
2E0
330
25A
330
2BC
330
271
330
278
330
276
330
25C
330
29C
330
C7
330
29B
330
CA
330
29D
330
C5
330
29A
330
25D
330
25B
330
269
330
26F
330
2BB
330
279
330
2E1
330
219
 75
     0
 76
     1
 98
        1
 10
0.0
 20
0.0
  0
ENDSEC
  0
SECTION
  2
OBJECTS
  0
DICTIONARY
  5
C
330
0
100
AcDbDictionary
281
     1
  3
ACAD_GROUP
350
D
  3
ACAD_LAYOUT
350
1A
  3
ACAD_MATERIAL
350
3B
  3
ACAD_MLEADERSTYLE
350
331
  3
ACAD_MLINESTYLE
350
17
  3
ACAD_PLOTSETTINGS
350
19
  3
ACAD_PLOTSTYLENAME
350
E
  3
ACAD_VISUALSTYLE
350
2A
  3
AcDbVariableDictionary
350
32F
  0
DICTIONARY
  5
D
102
{ACAD_REACTORS
330
C
102
}
330
C
100
AcDbDictionary
281
     1
  0
DICTIONARY
  5
1A
102
{ACAD_REACTORS
330
C
102
}
330
C
100
AcDbDictionary
281
     1
  3
Layout1
350
1E
  3
Layout2
350
26
  3
Model
350
22
  0
DICTIONARY
  5
3B
102
{ACAD_REACTORS
330
C
102
}
330
C
100
AcDbDictionary
281
     1
  3
ByBlock
350
3D
  3
ByLayer
350
3C
  3
Global
350
3E
  0
DICTIONARY
  5
331
102
{ACAD_REACTORS
330
C
102
}
330
C
100
AcDbDictionary
281
     1
  0
DICTIONARY
  5
17
102
{ACAD_REACTORS
330
C
102
}
330
C
100
AcDbDictionary
281
     1
  3
Standard
350
18
  0
DICTIONARY
  5
19
102
{ACAD_REACTORS
330
C
102
}
330
C
100
AcDbDictionary
281
     1
  0
ACDBDICTIONARYWDFLT
  5
E
102
{ACAD_REACTORS
330
C
102
}
330
C
100
AcDbDictionary
281
     1
  3
Normal
350
F
100
AcDbDictionaryWithDefault
340
F
  0
DICTIONARY
  5
2A
102
{ACAD_REACTORS
330
C
102
}
330
C
100
AcDbDictionary
281
     1
  3
2dWireframe
350
2F
  3
3D Hidden
350
31
  3
3dWireframe
350
30
  3
Basic
350
32
  3
Brighten
350
36
  3
ColorChange
350
3A
  3
Conceptual
350
34
  3
Dim
350
35
  3
Facepattern
350
39
  3
Flat
350
2B
  3
FlatWithEdges
350
2C
  3
Gouraud
350
2D
  3
GouraudWithEdges
350
2E
  3
Linepattern
350
38
  3
Realistic
350
33
  3
Thicken
350
37
  0
DICTIONARY
  5
32F
102
{ACAD_REACTORS
330
C
102
}
330
C
100
AcDbDictionary
281
     1
  3
DIMASSOC
350
332
  3
HIDETEXT
350
333
  0
LAYOUT
  5
1E
102
{ACAD_REACTORS
330
1A
102
}
330
1A
100
AcDbPlotSettings
  1

  2
none_device
  4

  6

 40
0.0
 41
0.0
 42
0.0
 43
0.0
 44
0.0
 45
0.0
 46
0.0
 47
0.0
 48
0.0
 49
0.0
140
0.0
141
0.0
142
1.0
143
1.0
 70
   688
 72
     0
 73
     0
 74
     5
  7

 75
    16
147
1.0
148
0.0
149
0.0
100
AcDbLayout
  1
Layout1
 70
     1
 71
     1
 10
0.0
 20
0.0
 11
12.0
 21
9.0
 12
0.0
 22
0.0
 32
0.0
 14
1.00000000000000E+20
 24
1.00000000000000E+20
 34
1.00000000000000E+20
 15
-1.00000000000000E+20
 25
-1.00000000000000E+20
 35
-1.00000000000000E+20
146
0.0
 13
0.0
 23
0.0
 33
0.0
 16
1.0
 26
0.0
 36
0.0
 17
0.0
 27
1.0
 37
0.0
 76
     0
330
1B
  0
LAYOUT
  5
26
102
{ACAD_REACTORS
330
1A
102
}
330
1A
100
AcDbPlotSettings
  1

  2
none_device
  4

  6

 40
0.0
 41
0.0
 42
0.0
 43
0.0
 44
0.0
 45
0.0
 46
0.0
 47
0.0
 48
0.0
 49
0.0
140
0.0
141
0.0
142
1.0
143
1.0
 70
   688
 72
     0
 73
     0
 74
     5
  7

 75
    16
147
1.0
148
0.0
149
0.0
100
AcDbLayout
  1
Layout2
 70
     1
 71
     2
 10
0.0
 20
0.0
 11
0.0
 21
0.0
 12
0.0
 22
0.0
 32
0.0
 14
0.0
 24
0.0
 34
0.0
 15
0.0
 25
0.0
 35
0.0
146
0.0
 13
0.0
 23
0.0
 33
0.0
 16
1.0
 26
0.0
 36
0.0
 17
0.0
 27
1.0
 37
0.0
 76
     0
330
23
  0
LAYOUT
  5
22
102
{ACAD_REACTORS
330
1A
102
}
330
1A
100
AcDbPlotSettings
  1

  2
none_device
  4

  6

 40
0.0
 41
0.0
 42
0.0
 43
0.0
 44
0.0
 45
0.0
 46
0.0
 47
0.0
 48
0.0
 49
0.0
140
0.0
141
0.0
142
1.0
143
1.0
 70
  1712
 72
     0
 73
     0
 74
     0
  7

 75
     0
147
1.0
148
0.0
149
0.0
100
AcDbLayout
  1
Model
 70
     1
 71
     0
 10
0.0
 20
0.0
 11
12.0
 21
9.0
 12
0.0
 22
0.0
 32
0.0
 14
-105.0000000000001
 24
0.0
 34
0.0
 15
0.0
 25
148.5000000000001
 35
0.0
146
0.0
 13
0.0
 23
0.0
 33
0.0
 16
1.0
 26
0.0
 36
0.0
 17
0.0
 27
1.0
 37
0.0
 76
     0
330
1F
331
29
  0
MATERIAL
  5
3D
102
{ACAD_REACTORS
330
3B
102
}
102
{ACAD_XDICTIONARY
360
356
102
}
330
3B
100
AcDbMaterial
  1
ByBlock
  0
MATERIAL
  5
3C
102
{ACAD_REACTORS
330
3B
102
}
102
{ACAD_XDICTIONARY
360
354
102
}
330
3B
100
AcDbMaterial
  1
ByLayer
  0
MATERIAL
  5
3E
102
{ACAD_REACTORS
330
3B
102
}
102
{ACAD_XDICTIONARY
360
358
102
}
330
3B
100
AcDbMaterial
  1
Global
  0
MLINESTYLE
  5
18
102
{ACAD_REACTORS
330
17
102
}
330
17
100
AcDbMlineStyle
  2
Standard
 70
     0
  3

 62
   256
 51
90.0
 52
90.0
 71
     2
 49
0.5
 62
   256
  6
BYLAYER
 49
-0.5
 62
   256
  6
BYLAYER
  0
ACDBPLACEHOLDER
  5
F
102
{ACAD_REACTORS
330
E
102
}
330
E
  0
VISUALSTYLE
  5
2F
102
{ACAD_REACTORS
330
2A
102
}
102
{ACAD_XDICTIONARY
360
33C
102
}
330
2A
100
AcDbVisualStyle
  2
2dWireframe
 70
     4
 71
     0
 72
     2
 73
     0
 90
        0
 40
-0.6
 41
-30.0
 62
     5
 63
     7
 74
     1
 91
        4
 64
     7
 65
   257
 75
     1
175
     1
 42
1.0
 92
        0
 66
   257
 43
1.0
 76
     1
 77
     6
 78
     2
 67
     7
 79
     5
170
     0
171
     0
290
     0
174
     0
 93
        1
 44
0.0
173
     0
291
     0
 45
0.0
1001
ACAD
1000
AcDbSavedByObjectVersion
1070
     0
  0
VISUALSTYLE
  5
31
102
{ACAD_REACTORS
330
2A
102
}
102
{ACAD_XDICTIONARY
360
340
102
}
330
2A
100
AcDbVisualStyle
  2
3D Hidden
 70
     6
 71
     1
 72
     2
 73
     2
 90
        0
 40
-0.6
 41
-30.0
 62
     5
 63
     7
 74
     2
 91
        2
 64
     7
 65
   257
 75
     2
175
     1
 42
40.0
 92
        0
 66
   257
 43
1.0
 76
     1
 77
     6
 78
     2
 67
     7
 79
     3
170
     0
171
     0
290
     0
174
     0
 93
        1
 44
0.0
173
     0
291
     0
 45
0.0
1001
ACAD
1000
AcDbSavedByObjectVersion
1070
     0
  0
VISUALSTYLE
  5
30
102
{ACAD_REACTORS
330
2A
102
}
102
{ACAD_XDICTIONARY
360
33E
102
}
330
2A
100
AcDbVisualStyle
  2
3dWireframe
 70
     5
 71
     0
 72
     2
 73
     0
 90
        0
 40
-0.6
 41
-30.0
 62
     5
 63
     7
 74
     1
 91
        4
 64
     7
 65
   257
 75
     1
175
     1
 42
1.0
 92
        0
 66
   257
 43
1.0
 76
     1
 77
     6
 78
     2
 67
     7
 79
     5
170
     0
171
     0
290
     0
174
     0
 93
        1
 44
0.0
173
     0
291
     0
 45
0.0
1001
ACAD
1000
AcDbSavedByObjectVersion
1070
     0
  0
VISUALSTYLE
  5
32
102
{ACAD_REACTORS
330
2A
102
}
102
{ACAD_XDICTIONARY
360
342
102
}
330
2A
100
AcDbVisualStyle
  2
Basic
 70
     7
 71
     1
 72
     0
 73
     1
 90
        0
 40
-0.6
 41
-30.0
 62
     5
 63
     7
 74
     0
 91
        4
 64
     7
 65
   257
 75
     1
175
     1
 42
1.0
 92
        8
 66
     7
 43
1.0
 76
     1
 77
     6
 78
     2
 67
     7
 79
     5
170
     0
171
     0
290
     0
174
     0
 93
        1
 44
0.0
173
     0
291
     1
 45
0.0
1001
ACAD
1000
AcDbSavedByObjectVersion
1070
     0
  0
VISUALSTYLE
  5
36
102
{ACAD_REACTORS
330
2A
102
}
102
{ACAD_XDICTIONARY
360
34A
102
}
330
2A
100
AcDbVisualStyle
  2
Brighten
 70
    12
 71
     2
 72
     2
 73
     0
 90
        0
 40
-0.6
 41
-30.0
 62
     5
 63
     7
 74
     1
 91
        4
 64
     7
 65
   257
 75
     1
175
     1
 42
1.0
 92
        8
 66
     7
 43
1.0
 76
     1
 77
     6
 78
     2
 67
     7
 79
     5
170
     0
171
     0
290
     0
174
     0
 93
        1
 44
50.0
173
     0
291
     1
 45
0.0
1001
ACAD
1000
AcDbSavedByObjectVersion
1070
     0
  0
VISUALSTYLE
  5
3A
102
{ACAD_REACTORS
330
2A
102
}
102
{ACAD_XDICTIONARY
360
352
102
}
330
2A
100
AcDbVisualStyle
  2
ColorChange
 70
    16
 71
     2
 72
     2
 73
     3
 90
        0
 40
-0.6
 41
-30.0
 62
     5
 63
     8
 74
     1
 91
        4
 64
     7
 65
   257
 75
     1
175
     1
 42
1.0
 92
        8
 66
     8
 43
1.0
 76
     1
 77
     6
 78
     2
 67
     7
 79
     5
170
     0
171
     0
290
     0
174
     0
 93
        1
 44
0.0
173
     0
291
     1
 45
0.0
1001
ACAD
1000
AcDbSavedByObjectVersion
1070
     0
  0
VISUALSTYLE
  5
34
102
{ACAD_REACTORS
330
2A
102
}
102
{ACAD_XDICTIONARY
360
346
102
}
330
2A
100
AcDbVisualStyle
  2
Conceptual
 70
     9
 71
     3
 72
     2
 73
     0
 90
        0
 40
-0.6
 41
-30.0
 62
     5
 63
     7
 74
     2
 91
        2
 64
     7
 65
   257
 75
     1
175
     1
 42
40.0
 92
        8
 66
     7
 43
1.0
 76
     1
 77
     6
 78
     2
 67
     7
 79
     3
170
     0
171
     0
290
     0
174
     0
 93
        1
 44
0.0
173
     0
291
     0
 45
0.0
1001
ACAD
1000
AcDbSavedByObjectVersion
1070
     0
  0
VISUALSTYLE
  5
35
102
{ACAD_REACTORS
330
2A
102
}
102
{ACAD_XDICTIONARY
360
348
102
}
330
2A
100
AcDbVisualStyle
  2
Dim
 70
    11
 71
     2
 72
     2
 73
     0
 90
        0
 40
-0.6
 41
-30.0
 62
     5
 63
     7
 74
     1
 91
        4
 64
     7
 65
   257
 75
     1
175
     1
 42
1.0
 92
        8
 66
     7
 43
1.0
 76
     1
 77
     6
 78
     2
 67
     7
 79
     5
170
     0
171
     0
290
     0
174
     0
 93
        1
 44
-50.0
173
     0
291
     1
 45
0.0
1001
ACAD
1000
AcDbSavedByObjectVersion
1070
     0
  0
VISUALSTYLE
  5
39
102
{ACAD_REACTORS
330
2A
102
}
102
{ACAD_XDICTIONARY
360
350
102
}
330
2A
100
AcDbVisualStyle
  2
Facepattern
 70
    15
 71
     2
 72
     2
 73
     0
 90
        0
 40
-0.6
 41
-30.0
 62
     5
 63
     7
 74
     1
 91
        4
 64
     7
 65
   257
 75
     1
175
     1
 42
1.0
 92
        8
 66
     7
 43
1.0
 76
     1
 77
     6
 78
     2
 67
     7
 79
     5
170
     0
171
     0
290
     0
174
     0
 93
        1
 44
0.0
173
     0
291
     1
 45
0.0
1001
ACAD
1000
AcDbSavedByObjectVersion
1070
     0
  0
VISUALSTYLE
  5
2B
102
{ACAD_REACTORS
330
2A
102
}
102
{ACAD_XDICTIONARY
360
334
102
}
330
2A
100
AcDbVisualStyle
  2
Flat
 70
     0
 71
     2
 72
     1
 73
     1
 90
        2
 40
-0.6
 41
30.0
 62
     5
 63
     7
 74
     0
 91
        4
 64
     7
 65
   257
 75
     1
175
     1
 42
1.0
 92
        8
 66
     7
 43
1.0
 76
     1
 77
     6
 78
     2
 67
     7
 79
     5
170
     0
171
     0
290
     0
174
     0
 93
       13
 44
0.0
173
     0
291
     1
 45
0.0
1001
ACAD
1000
AcDbSavedByObjectVersion
1070
     0
  0
VISUALSTYLE
  5
2C
102
{ACAD_REACTORS
330
2A
102
}
102
{ACAD_XDICTIONARY
360
336
102
}
330
2A
100
AcDbVisualStyle
  2
FlatWithEdges
 70
     1
 71
     2
 72
     1
 73
     1
 90
        2
 40
-0.6
 41
30.0
 62
     5
 63
     7
 74
     1
 91
        4
 64
     7
 65
   257
 75
     1
175
     1
 42
1.0
 92
        0
 66
   257
 43
1.0
 76
     1
 77
     6
 78
     2
 67
     7
 79
     5
170
     0
171
     0
290
     0
174
     0
 93
       13
 44
0.0
173
     0
291
     1
 45
0.0
1001
ACAD
1000
AcDbSavedByObjectVersion
1070
     0
  0
VISUALSTYLE
  5
2D
102
{ACAD_REACTORS
330
2A
102
}
102
{ACAD_XDICTIONARY
360
338
102
}
330
2A
100
AcDbVisualStyle
  2
Gouraud
 70
     2
 71
     2
 72
     2
 73
     1
 90
        2
 40
-0.6
 41
30.0
 62
     5
 63
     7
 74
     0
 91
        4
 64
     7
 65
   257
 75
     1
175
     1
 42
1.0
 92
        0
 66
     7
 43
1.0
 76
     1
 77
     6
 78
     2
 67
     7
 79
     5
170
     0
171
     0
290
     0
174
     0
 93
       13
 44
0.0
173
     0
291
     1
 45
0.0
1001
ACAD
1000
AcDbSavedByObjectVersion
1070
     0
  0
VISUALSTYLE
  5
2E
102
{ACAD_REACTORS
330
2A
102
}
102
{ACAD_XDICTIONARY
360
33A
102
}
330
2A
100
AcDbVisualStyle
  2
GouraudWithEdges
 70
     3
 71
     2
 72
     2
 73
     1
 90
        2
 40
-0.6
 41
30.0
 62
     5
 63
     7
 74
     1
 91
        4
 64
     7
 65
   257
 75
     1
175
     1
 42
1.0
 92
        0
 66
   257
 43
1.0
 76
     1
 77
     6
 78
     2
 67
     7
 79
     5
170
     0
171
     0
290
     0
174
     0
 93
       13
 44
0.0
173
     0
291
     1
 45
0.0
1001
ACAD
1000
AcDbSavedByObjectVersion
1070
     0
  0
VISUALSTYLE
  5
38
102
{ACAD_REACTORS
330
2A
102
}
102
{ACAD_XDICTIONARY
360
34E
102
}
330
2A
100
AcDbVisualStyle
  2
Linepattern
 70
    14
 71
     2
 72
     2
 73
     0
 90
        0
 40
-0.6
 41
-30.0
 62
     5
 63
     7
 74
     1
 91
        4
 64
     7
 65
   257
 75
     7
175
     7
 42
1.0
 92
        8
 66
     7
 43
1.0
 76
     1
 77
     6
 78
     2
 67
     7
 79
     5
170
     0
171
     0
290
     0
174
     0
 93
        1
 44
0.0
173
     0
291
     1
 45
0.0
1001
ACAD
1000
AcDbSavedByObjectVersion
1070
     0
  0
VISUALSTYLE
  5
33
102
{ACAD_REACTORS
330
2A
102
}
102
{ACAD_XDICTIONARY
360
344
102
}
330
2A
100
AcDbVisualStyle
  2
Realistic
 70
     8
 71
     2
 72
     2
 73
     0
 90
        0
 40
-0.6
 41
-30.0
 62
     5
 63
     7
 74
     1
 91
        0
 64
     7
 65
   257
 75
     1
175
     1
 42
1.0
 92
        8
 66
     8
 43
1.0
 76
     1
 77
     6
 78
     2
 67
     7
 79
     5
170
     0
171
     0
290
     0
174
     0
 93
       13
 44
0.0
173
     0
291
     0
 45
0.0
1001
ACAD
1000
AcDbSavedByObjectVersion
1070
     0
  0
VISUALSTYLE
  5
37
102
{ACAD_REACTORS
330
2A
102
}
102
{ACAD_XDICTIONARY
360
34C
102
}
330
2A
100
AcDbVisualStyle
  2
Thicken
 70
    13
 71
     2
 72
     2
 73
     0
 90
        0
 40
-0.6
 41
-30.0
 62
     5
 63
     7
 74
     1
 91
        4
 64
     7
 65
   257
 75
     1
175
     1
 42
1.0
 92
       12
 66
     7
 43
1.0
 76
     1
 77
     6
 78
     2
 67
     7
 79
     5
170
     0
171
     0
290
     0
174
     0
 93
        1
 44
0.0
173
     0
291
     1
 45
0.0
1001
ACAD
1000
AcDbSavedByObjectVersion
1070
     0
  0
DICTIONARYVAR
  5
332
102
{ACAD_REACTORS
330
32F
102
}
330
32F
100
DictionaryVariables
280
     0
  1
2
  0
DICTIONARYVAR
  5
333
102
{ACAD_REACTORS
330
32F
102
}
330
32F
100
DictionaryVariables
280
     0
  1
1
  0
DICTIONARY
  5
356
330
3D
100
AcDbDictionary
280
     1
281
     1
  3
ACAD_XREC_ROUNDTRIP
360
357
  0
DICTIONARY
  5
354
330
3C
100
AcDbDictionary
280
     1
281
     1
  3
ACAD_XREC_ROUNDTRIP
360
355
  0
DICTIONARY
  5
358
330
3E
100
AcDbDictionary
280
     1
281
     1
  3
ACAD_XREC_ROUNDTRIP
360
359
  0
DICTIONARY
  5
33C
330
2F
100
AcDbDictionary
280
     1
281
     1
  3
ACAD_XREC_ROUNDTRIP
360
33D
  0
DICTIONARY
  5
340
330
31
100
AcDbDictionary
280
     1
281
     1
  3
ACAD_XREC_ROUNDTRIP
360
341
  0
DICTIONARY
  5
33E
330
30
100
AcDbDictionary
280
     1
281
     1
  3
ACAD_XREC_ROUNDTRIP
360
33F
  0
DICTIONARY
  5
342
330
32
100
AcDbDictionary
280
     1
281
     1
  3
ACAD_XREC_ROUNDTRIP
360
343
  0
DICTIONARY
  5
34A
330
36
100
AcDbDictionary
280
     1
281
     1
  3
ACAD_XREC_ROUNDTRIP
360
34B
  0
DICTIONARY
  5
352
330
3A
100
AcDbDictionary
280
     1
281
     1
  3
ACAD_XREC_ROUNDTRIP
360
353
  0
DICTIONARY
  5
346
330
34
100
AcDbDictionary
280
     1
281
     1
  3
ACAD_XREC_ROUNDTRIP
360
347
  0
DICTIONARY
  5
348
330
35
100
AcDbDictionary
280
     1
281
     1
  3
ACAD_XREC_ROUNDTRIP
360
349
  0
DICTIONARY
  5
350
330
39
100
AcDbDictionary
280
     1
281
     1
  3
ACAD_XREC_ROUNDTRIP
360
351
  0
DICTIONARY
  5
334
330
2B
100
AcDbDictionary
280
     1
281
     1
  3
ACAD_XREC_ROUNDTRIP
360
335
  0
DICTIONARY
  5
336
330
2C
100
AcDbDictionary
280
     1
281
     1
  3
ACAD_XREC_ROUNDTRIP
360
337
  0
DICTIONARY
  5
338
330
2D
100
AcDbDictionary
280
     1
281
     1
  3
ACAD_XREC_ROUNDTRIP
360
339
  0
DICTIONARY
  5
33A
330
2E
100
AcDbDictionary
280
     1
281
     1
  3
ACAD_XREC_ROUNDTRIP
360
33B
  0
DICTIONARY
  5
34E
330
38
100
AcDbDictionary
280
     1
281
     1
  3
ACAD_XREC_ROUNDTRIP
360
34F
  0
DICTIONARY
  5
344
330
33
100
AcDbDictionary
280
     1
281
     1
  3
ACAD_XREC_ROUNDTRIP
360
345
  0
DICTIONARY
  5
34C
330
37
100
AcDbDictionary
280
     1
281
     1
  3
ACAD_XREC_ROUNDTRIP
360
34D
  0
XRECORD
  5
357
102
{ACAD_REACTORS
330
356
102
}
330
356
100
AcDbXrecord
280
     1
102
MATERIAL
148
0.0
149
0.0
149
0.0
 93
        0
 94
      127
282
     0
 72
     1
 77
     1
171
     1
175
     1
179
     1
273
     0
  0
XRECORD
  5
355
102
{ACAD_REACTORS
330
354
102
}
330
354
100
AcDbXrecord
280
     1
102
MATERIAL
148
0.0
149
0.0
149
0.0
 93
        0
 94
      127
282
     0
 72
     1
 77
     1
171
     1
175
     1
179
     1
273
     0
  0
XRECORD
  5
359
102
{ACAD_REACTORS
330
358
102
}
330
358
100
AcDbXrecord
280
     1
102
MATERIAL
148
0.0
149
0.0
149
0.0
 93
        0
 94
      127
282
     0
 72
     1
 77
     1
171
     1
175
     1
179
     1
273
     0
  0
XRECORD
  5
33D
102
{ACAD_REACTORS
330
33C
102
}
330
33C
100
AcDbXrecord
280
     1
102
RTVSPropertyOp0
 70
     1
102
RTVSPropertyOp1
 70
     1
102
RTVSPropertyOp2
 70
     1
102
RTVSPropertyOp3
 70
     1
102
RTVSPropertyOp4
 70
     1
102
RTVSPropertyOp5
 70
     1
102
RTVSPropertyOp6
 70
     1
102
RTVSPropertyOp7
 70
     1
102
RTVSPropertyOp8
 70
     1
102
RTVSPropertyOp9
 70
     1
102
RTVSPropertyOp10
 70
     1
102
RTVSPropertyOp11
 70
     1
102
RTVSPropertyOp12
 70
     1
102
RTVSPropertyOp13
 70
     1
102
RTVSPropertyOp14
 70
     1
102
RTVSPropertyOp15
 70
     1
102
RTVSPropertyOp16
 70
     1
102
RTVSPropertyOp17
 70
     1
102
RTVSPropertyOp18
 70
     1
102
RTVSPropertyOp19
 70
     1
102
RTVSPropertyOp20
 70
     1
102
RTVSPropertyOp21
 70
     1
102
RTVSPropertyOp22
 70
     1
102
RTVSPropertyOp23
 70
     1
102
RTVSPropertyOp24
 70
     1
102
RTVSPropertyOp25
 70
     1
102
RTVSPropertyOp26
 70
     1
102
RTVSPropertyOp27
 70
     1
102
RTVSPropertyOp28
 70
     1
102
RTVSPropertyOp29
 70
     1
102
RTVSPropertyOp30
 70
     1
102
RTVSPropertyOp31
 70
     1
102
RTVSPropertyOp32
 70
     1
  0
XRECORD
  5
341
102
{ACAD_REACTORS
330
340
102
}
330
340
100
AcDbXrecord
280
     1
102
RTVSPropertyOp0
 70
     1
102
RTVSPropertyOp1
 70
     1
102
RTVSPropertyOp2
 70
     1
102
RTVSPropertyOp3
 70
     1
102
RTVSPropertyOp4
 70
     1
102
RTVSPropertyOp5
 70
     1
102
RTVSPropertyOp6
 70
     1
102
RTVSPropertyOp7
 70
     1
102
RTVSPropertyOp8
 70
     1
102
RTVSPropertyOp9
 70
     1
102
RTVSPropertyOp10
 70
     1
102
RTVSPropertyOp11
 70
     1
102
RTVSPropertyOp12
 70
     1
102
RTVSPropertyOp13
 70
     1
102
RTVSPropertyOp14
 70
     1
102
RTVSPropertyOp15
 70
     1
102
RTVSPropertyOp16
 70
     1
102
RTVSPropertyOp17
 70
     1
102
RTVSPropertyOp18
 70
     1
102
RTVSPropertyOp19
 70
     1
102
RTVSPropertyOp20
 70
     1
102
RTVSPropertyOp21
 70
     1
102
RTVSPropertyOp22
 70
     1
102
RTVSPropertyOp23
 70
     1
102
RTVSPropertyOp24
 70
     1
102
RTVSPropertyOp25
 70
     1
102
RTVSPropertyOp26
 70
     1
102
RTVSPropertyOp27
 70
     1
102
RTVSPropertyOp28
 70
     1
102
RTVSPropertyOp29
 70
     1
102
RTVSPropertyOp30
 70
     1
102
RTVSPropertyOp31
 70
     1
102
RTVSPropertyOp32
 70
     1
  0
XRECORD
  5
33F
102
{ACAD_REACTORS
330
33E
102
}
330
33E
100
AcDbXrecord
280
     1
102
RTVSPropertyOp0
 70
     1
102
RTVSPropertyOp1
 70
     1
102
RTVSPropertyOp2
 70
     1
102
RTVSPropertyOp3
 70
     1
102
RTVSPropertyOp4
 70
     1
102
RTVSPropertyOp5
 70
     1
102
RTVSPropertyOp6
 70
     1
102
RTVSPropertyOp7
 70
     1
102
RTVSPropertyOp8
 70
     1
102
RTVSPropertyOp9
 70
     1
102
RTVSPropertyOp10
 70
     1
102
RTVSPropertyOp11
 70
     1
102
RTVSPropertyOp12
 70
     1
102
RTVSPropertyOp13
 70
     1
102
RTVSPropertyOp14
 70
     1
102
RTVSPropertyOp15
 70
     1
102
RTVSPropertyOp16
 70
     1
102
RTVSPropertyOp17
 70
     1
102
RTVSPropertyOp18
 70
     1
102
RTVSPropertyOp19
 70
     1
102
RTVSPropertyOp20
 70
     1
102
RTVSPropertyOp21
 70
     1
102
RTVSPropertyOp22
 70
     1
102
RTVSPropertyOp23
 70
     1
102
RTVSPropertyOp24
 70
     1
102
RTVSPropertyOp25
 70
     1
102
RTVSPropertyOp26
 70
     1
102
RTVSPropertyOp27
 70
     1
102
RTVSPropertyOp28
 70
     1
102
RTVSPropertyOp29
 70
     1
102
RTVSPropertyOp30
 70
     1
102
RTVSPropertyOp31
 70
     1
102
RTVSPropertyOp32
 70
     1
  0
XRECORD
  5
343
102
{ACAD_REACTORS
330
342
102
}
330
342
100
AcDbXrecord
280
     1
102
RTVSPropertyOp0
 70
     1
102
RTVSPropertyOp1
 70
     1
102
RTVSPropertyOp2
 70
     1
102
RTVSPropertyOp3
 70
     1
102
RTVSPropertyOp4
 70
     1
102
RTVSPropertyOp5
 70
     1
102
RTVSPropertyOp6
 70
     1
102
RTVSPropertyOp7
 70
     1
102
RTVSPropertyOp8
 70
     1
102
RTVSPropertyOp9
 70
     1
102
RTVSPropertyOp10
 70
     1
102
RTVSPropertyOp11
 70
     1
102
RTVSPropertyOp12
 70
     1
102
RTVSPropertyOp13
 70
     1
102
RTVSPropertyOp14
 70
     1
102
RTVSPropertyOp15
 70
     1
102
RTVSPropertyOp16
 70
     1
102
RTVSPropertyOp17
 70
     1
102
RTVSPropertyOp18
 70
     1
102
RTVSPropertyOp19
 70
     1
102
RTVSPropertyOp20
 70
     1
102
RTVSPropertyOp21
 70
     1
102
RTVSPropertyOp22
 70
     1
102
RTVSPropertyOp23
 70
     1
102
RTVSPropertyOp24
 70
     1
102
RTVSPropertyOp25
 70
     1
102
RTVSPropertyOp26
 70
     1
102
RTVSPropertyOp27
 70
     1
102
RTVSPropertyOp28
 70
     1
102
RTVSPropertyOp29
 70
     1
102
RTVSPropertyOp30
 70
     1
102
RTVSPropertyOp31
 70
     1
102
RTVSPropertyOp32
 70
     1
  0
XRECORD
  5
34B
102
{ACAD_REACTORS
330
34A
102
}
330
34A
100
AcDbXrecord
280
     1
102
RTVSPropertyOp0
 70
     1
102
RTVSPropertyOp1
 70
     1
102
RTVSPropertyOp2
 70
     1
102
RTVSPropertyOp3
 70
     1
102
RTVSPropertyOp4
 70
     1
102
RTVSPropertyOp5
 70
     1
102
RTVSPropertyOp6
 70
     1
102
RTVSPropertyOp7
 70
     1
102
RTVSPropertyOp8
 70
     1
102
RTVSPropertyOp9
 70
     1
102
RTVSPropertyOp10
 70
     1
102
RTVSPropertyOp11
 70
     1
102
RTVSPropertyOp12
 70
     1
102
RTVSPropertyOp13
 70
     1
102
RTVSPropertyOp14
 70
     1
102
RTVSPropertyOp15
 70
     1
102
RTVSPropertyOp16
 70
     1
102
RTVSPropertyOp17
 70
     1
102
RTVSPropertyOp18
 70
     1
102
RTVSPropertyOp19
 70
     1
102
RTVSPropertyOp20
 70
     1
102
RTVSPropertyOp21
 70
     1
102
RTVSPropertyOp22
 70
     1
102
RTVSPropertyOp23
 70
     1
102
RTVSPropertyOp24
 70
     1
102
RTVSPropertyOp25
 70
     1
102
RTVSPropertyOp26
 70
     1
102
RTVSPropertyOp27
 70
     1
102
RTVSPropertyOp28
 70
     1
102
RTVSPropertyOp29
 70
     1
102
RTVSPropertyOp30
 70
     1
102
RTVSPropertyOp31
 70
     1
102
RTVSPropertyOp32
 70
     1
  0
XRECORD
  5
353
102
{ACAD_REACTORS
330
352
102
}
330
352
100
AcDbXrecord
280
     1
102
RTVSPropertyOp0
 70
     1
102
RTVSPropertyOp1
 70
     1
102
RTVSPropertyOp2
 70
     1
102
RTVSPropertyOp3
 70
     1
102
RTVSPropertyOp4
 70
     1
102
RTVSPropertyOp5
 70
     1
102
RTVSPropertyOp6
 70
     1
102
RTVSPropertyOp7
 70
     1
102
RTVSPropertyOp8
 70
     1
102
RTVSPropertyOp9
 70
     1
102
RTVSPropertyOp10
 70
     1
102
RTVSPropertyOp11
 70
     1
102
RTVSPropertyOp12
 70
     1
102
RTVSPropertyOp13
 70
     1
102
RTVSPropertyOp14
 70
     1
102
RTVSPropertyOp15
 70
     1
102
RTVSPropertyOp16
 70
     1
102
RTVSPropertyOp17
 70
     1
102
RTVSPropertyOp18
 70
     1
102
RTVSPropertyOp19
 70
     1
102
RTVSPropertyOp20
 70
     1
102
RTVSPropertyOp21
 70
     1
102
RTVSPropertyOp22
 70
     1
102
RTVSPropertyOp23
 70
     1
102
RTVSPropertyOp24
 70
     1
102
RTVSPropertyOp25
 70
     1
102
RTVSPropertyOp26
 70
     1
102
RTVSPropertyOp27
 70
     1
102
RTVSPropertyOp28
 70
     1
102
RTVSPropertyOp29
 70
     1
102
RTVSPropertyOp30
 70
     1
102
RTVSPropertyOp31
 70
     1
102
RTVSPropertyOp32
 70
     1
  0
XRECORD
  5
347
102
{ACAD_REACTORS
330
346
102
}
330
346
100
AcDbXrecord
280
     1
102
RTVSPropertyOp0
 70
     1
102
RTVSPropertyOp1
 70
     1
102
RTVSPropertyOp2
 70
     1
102
RTVSPropertyOp3
 70
     1
102
RTVSPropertyOp4
 70
     1
102
RTVSPropertyOp5
 70
     1
102
RTVSPropertyOp6
 70
     1
102
RTVSPropertyOp7
 70
     1
102
RTVSPropertyOp8
 70
     1
102
RTVSPropertyOp9
 70
     1
102
RTVSPropertyOp10
 70
     1
102
RTVSPropertyOp11
 70
     1
102
RTVSPropertyOp12
 70
     1
102
RTVSPropertyOp13
 70
     1
102
RTVSPropertyOp14
 70
     1
102
RTVSPropertyOp15
 70
     1
102
RTVSPropertyOp16
 70
     1
102
RTVSPropertyOp17
 70
     1
102
RTVSPropertyOp18
 70
     1
102
RTVSPropertyOp19
 70
     1
102
RTVSPropertyOp20
 70
     1
102
RTVSPropertyOp21
 70
     1
102
RTVSPropertyOp22
 70
     1
102
RTVSPropertyOp23
 70
     1
102
RTVSPropertyOp24
 70
     1
102
RTVSPropertyOp25
 70
     1
102
RTVSPropertyOp26
 70
     1
102
RTVSPropertyOp27
 70
     1
102
RTVSPropertyOp28
 70
     1
102
RTVSPropertyOp29
 70
     1
102
RTVSPropertyOp30
 70
     1
102
RTVSPropertyOp31
 70
     1
102
RTVSPropertyOp32
 70
     1
  0
XRECORD
  5
349
102
{ACAD_REACTORS
330
348
102
}
330
348
100
AcDbXrecord
280
     1
102
RTVSPropertyOp0
 70
     1
102
RTVSPropertyOp1
 70
     1
102
RTVSPropertyOp2
 70
     1
102
RTVSPropertyOp3
 70
     1
102
RTVSPropertyOp4
 70
     1
102
RTVSPropertyOp5
 70
     1
102
RTVSPropertyOp6
 70
     1
102
RTVSPropertyOp7
 70
     1
102
RTVSPropertyOp8
 70
     1
102
RTVSPropertyOp9
 70
     1
102
RTVSPropertyOp10
 70
     1
102
RTVSPropertyOp11
 70
     1
102
RTVSPropertyOp12
 70
     1
102
RTVSPropertyOp13
 70
     1
102
RTVSPropertyOp14
 70
     1
102
RTVSPropertyOp15
 70
     1
102
RTVSPropertyOp16
 70
     1
102
RTVSPropertyOp17
 70
     1
102
RTVSPropertyOp18
 70
     1
102
RTVSPropertyOp19
 70
     1
102
RTVSPropertyOp20
 70
     1
102
RTVSPropertyOp21
 70
     1
102
RTVSPropertyOp22
 70
     1
102
RTVSPropertyOp23
 70
     1
102
RTVSPropertyOp24
 70
     1
102
RTVSPropertyOp25
 70
     1
102
RTVSPropertyOp26
 70
     1
102
RTVSPropertyOp27
 70
     1
102
RTVSPropertyOp28
 70
     1
102
RTVSPropertyOp29
 70
     1
102
RTVSPropertyOp30
 70
     1
102
RTVSPropertyOp31
 70
     1
102
RTVSPropertyOp32
 70
     1
  0
XRECORD
  5
351
102
{ACAD_REACTORS
330
350
102
}
330
350
100
AcDbXrecord
280
     1
102
RTVSPropertyOp0
 70
     1
102
RTVSPropertyOp1
 70
     1
102
RTVSPropertyOp2
 70
     1
102
RTVSPropertyOp3
 70
     1
102
RTVSPropertyOp4
 70
     1
102
RTVSPropertyOp5
 70
     1
102
RTVSPropertyOp6
 70
     1
102
RTVSPropertyOp7
 70
     1
102
RTVSPropertyOp8
 70
     1
102
RTVSPropertyOp9
 70
     1
102
RTVSPropertyOp10
 70
     1
102
RTVSPropertyOp11
 70
     1
102
RTVSPropertyOp12
 70
     1
102
RTVSPropertyOp13
 70
     1
102
RTVSPropertyOp14
 70
     1
102
RTVSPropertyOp15
 70
     1
102
RTVSPropertyOp16
 70
     1
102
RTVSPropertyOp17
 70
     1
102
RTVSPropertyOp18
 70
     1
102
RTVSPropertyOp19
 70
     1
102
RTVSPropertyOp20
 70
     1
102
RTVSPropertyOp21
 70
     1
102
RTVSPropertyOp22
 70
     1
102
RTVSPropertyOp23
 70
     1
102
RTVSPropertyOp24
 70
     1
102
RTVSPropertyOp25
 70
     1
102
RTVSPropertyOp26
 70
     1
102
RTVSPropertyOp27
 70
     1
102
RTVSPropertyOp28
 70
     1
102
RTVSPropertyOp29
 70
     1
102
RTVSPropertyOp30
 70
     1
102
RTVSPropertyOp31
 70
     1
102
RTVSPropertyOp32
 70
     1
  0
XRECORD
  5
335
102
{ACAD_REACTORS
330
334
102
}
330
334
100
AcDbXrecord
280
     1
102
RTVSPropertyOp0
 70
     1
102
RTVSPropertyOp1
 70
     1
102
RTVSPropertyOp2
 70
     1
102
RTVSPropertyOp3
 70
     1
102
RTVSPropertyOp4
 70
     1
102
RTVSPropertyOp5
 70
     1
102
RTVSPropertyOp6
 70
     1
102
RTVSPropertyOp7
 70
     1
102
RTVSPropertyOp8
 70
     1
102
RTVSPropertyOp9
 70
     1
102
RTVSPropertyOp10
 70
     1
102
RTVSPropertyOp11
 70
     1
102
RTVSPropertyOp12
 70
     1
102
RTVSPropertyOp13
 70
     1
102
RTVSPropertyOp14
 70
     1
102
RTVSPropertyOp15
 70
     1
102
RTVSPropertyOp16
 70
     1
102
RTVSPropertyOp17
 70
     1
102
RTVSPropertyOp18
 70
     1
102
RTVSPropertyOp19
 70
     1
102
RTVSPropertyOp20
 70
     1
102
RTVSPropertyOp21
 70
     1
102
RTVSPropertyOp22
 70
     1
102
RTVSPropertyOp23
 70
     1
102
RTVSPropertyOp24
 70
     1
102
RTVSPropertyOp25
 70
     1
102
RTVSPropertyOp26
 70
     1
102
RTVSPropertyOp27
 70
     1
102
RTVSPropertyOp28
 70
     1
102
RTVSPropertyOp29
 70
     1
102
RTVSPropertyOp30
 70
     1
102
RTVSPropertyOp31
 70
     1
102
RTVSPropertyOp32
 70
     1
  0
XRECORD
  5
337
102
{ACAD_REACTORS
330
336
102
}
330
336
100
AcDbXrecord
280
     1
102
RTVSPropertyOp0
 70
     1
102
RTVSPropertyOp1
 70
     1
102
RTVSPropertyOp2
 70
     1
102
RTVSPropertyOp3
 70
     1
102
RTVSPropertyOp4
 70
     1
102
RTVSPropertyOp5
 70
     1
102
RTVSPropertyOp6
 70
     1
102
RTVSPropertyOp7
 70
     1
102
RTVSPropertyOp8
 70
     1
102
RTVSPropertyOp9
 70
     1
102
RTVSPropertyOp10
 70
     1
102
RTVSPropertyOp11
 70
     1
102
RTVSPropertyOp12
 70
     1
102
RTVSPropertyOp13
 70
     1
102
RTVSPropertyOp14
 70
     1
102
RTVSPropertyOp15
 70
     1
102
RTVSPropertyOp16
 70
     1
102
RTVSPropertyOp17
 70
     1
102
RTVSPropertyOp18
 70
     1
102
RTVSPropertyOp19
 70
     1
102
RTVSPropertyOp20
 70
     1
102
RTVSPropertyOp21
 70
     1
102
RTVSPropertyOp22
 70
     1
102
RTVSPropertyOp23
 70
     1
102
RTVSPropertyOp24
 70
     1
102
RTVSPropertyOp25
 70
     1
102
RTVSPropertyOp26
 70
     1
102
RTVSPropertyOp27
 70
     1
102
RTVSPropertyOp28
 70
     1
102
RTVSPropertyOp29
 70
     1
102
RTVSPropertyOp30
 70
     1
102
RTVSPropertyOp31
 70
     1
102
RTVSPropertyOp32
 70
     1
  0
XRECORD
  5
339
102
{ACAD_REACTORS
330
338
102
}
330
338
100
AcDbXrecord
280
     1
102
RTVSPropertyOp0
 70
     1
102
RTVSPropertyOp1
 70
     1
102
RTVSPropertyOp2
 70
     1
102
RTVSPropertyOp3
 70
     1
102
RTVSPropertyOp4
 70
     1
102
RTVSPropertyOp5
 70
     1
102
RTVSPropertyOp6
 70
     1
102
RTVSPropertyOp7
 70
     1
102
RTVSPropertyOp8
 70
     1
102
RTVSPropertyOp9
 70
     1
102
RTVSPropertyOp10
 70
     1
102
RTVSPropertyOp11
 70
     1
102
RTVSPropertyOp12
 70
     1
102
RTVSPropertyOp13
 70
     1
102
RTVSPropertyOp14
 70
     1
102
RTVSPropertyOp15
 70
     1
102
RTVSPropertyOp16
 70
     1
102
RTVSPropertyOp17
 70
     1
102
RTVSPropertyOp18
 70
     1
102
RTVSPropertyOp19
 70
     1
102
RTVSPropertyOp20
 70
     1
102
RTVSPropertyOp21
 70
     1
102
RTVSPropertyOp22
 70
     1
102
RTVSPropertyOp23
 70
     1
102
RTVSPropertyOp24
 70
     1
102
RTVSPropertyOp25
 70
     1
102
RTVSPropertyOp26
 70
     1
102
RTVSPropertyOp27
 70
     1
102
RTVSPropertyOp28
 70
     1
102
RTVSPropertyOp29
 70
     1
102
RTVSPropertyOp30
 70
     1
102
RTVSPropertyOp31
 70
     1
102
RTVSPropertyOp32
 70
     1
  0
XRECORD
  5
33B
102
{ACAD_REACTORS
330
33A
102
}
330
33A
100
AcDbXrecord
280
     1
102
RTVSPropertyOp0
 70
     1
102
RTVSPropertyOp1
 70
     1
102
RTVSPropertyOp2
 70
     1
102
RTVSPropertyOp3
 70
     1
102
RTVSPropertyOp4
 70
     1
102
RTVSPropertyOp5
 70
     1
102
RTVSPropertyOp6
 70
     1
102
RTVSPropertyOp7
 70
     1
102
RTVSPropertyOp8
 70
     1
102
RTVSPropertyOp9
 70
     1
102
RTVSPropertyOp10
 70
     1
102
RTVSPropertyOp11
 70
     1
102
RTVSPropertyOp12
 70
     1
102
RTVSPropertyOp13
 70
     1
102
RTVSPropertyOp14
 70
     1
102
RTVSPropertyOp15
 70
     1
102
RTVSPropertyOp16
 70
     1
102
RTVSPropertyOp17
 70
     1
102
RTVSPropertyOp18
 70
     1
102
RTVSPropertyOp19
 70
     1
102
RTVSPropertyOp20
 70
     1
102
RTVSPropertyOp21
 70
     1
102
RTVSPropertyOp22
 70
     1
102
RTVSPropertyOp23
 70
     1
102
RTVSPropertyOp24
 70
     1
102
RTVSPropertyOp25
 70
     1
102
RTVSPropertyOp26
 70
     1
102
RTVSPropertyOp27
 70
     1
102
RTVSPropertyOp28
 70
     1
102
RTVSPropertyOp29
 70
     1
102
RTVSPropertyOp30
 70
     1
102
RTVSPropertyOp31
 70
     1
102
RTVSPropertyOp32
 70
     1
  0
XRECORD
  5
34F
102
{ACAD_REACTORS
330
34E
102
}
330
34E
100
AcDbXrecord
280
     1
102
RTVSPropertyOp0
 70
     1
102
RTVSPropertyOp1
 70
     1
102
RTVSPropertyOp2
 70
     1
102
RTVSPropertyOp3
 70
     1
102
RTVSPropertyOp4
 70
     1
102
RTVSPropertyOp5
 70
     1
102
RTVSPropertyOp6
 70
     1
102
RTVSPropertyOp7
 70
     1
102
RTVSPropertyOp8
 70
     1
102
RTVSPropertyOp9
 70
     1
102
RTVSPropertyOp10
 70
     1
102
RTVSPropertyOp11
 70
     1
102
RTVSPropertyOp12
 70
     1
102
RTVSPropertyOp13
 70
     1
102
RTVSPropertyOp14
 70
     1
102
RTVSPropertyOp15
 70
     1
102
RTVSPropertyOp16
 70
     1
102
RTVSPropertyOp17
 70
     1
102
RTVSPropertyOp18
 70
     1
102
RTVSPropertyOp19
 70
     1
102
RTVSPropertyOp20
 70
     1
102
RTVSPropertyOp21
 70
     1
102
RTVSPropertyOp22
 70
     1
102
RTVSPropertyOp23
 70
     1
102
RTVSPropertyOp24
 70
     1
102
RTVSPropertyOp25
 70
     1
102
RTVSPropertyOp26
 70
     1
102
RTVSPropertyOp27
 70
     1
102
RTVSPropertyOp28
 70
     1
102
RTVSPropertyOp29
 70
     1
102
RTVSPropertyOp30
 70
     1
102
RTVSPropertyOp31
 70
     1
102
RTVSPropertyOp32
 70
     1
  0
XRECORD
  5
345
102
{ACAD_REACTORS
330
344
102
}
330
344
100
AcDbXrecord
280
     1
102
RTVSPropertyOp0
 70
     1
102
RTVSPropertyOp1
 70
     1
102
RTVSPropertyOp2
 70
     1
102
RTVSPropertyOp3
 70
     1
102
RTVSPropertyOp4
 70
     1
102
RTVSPropertyOp5
 70
     1
102
RTVSPropertyOp6
 70
     1
102
RTVSPropertyOp7
 70
     1
102
RTVSPropertyOp8
 70
     1
102
RTVSPropertyOp9
 70
     1
102
RTVSPropertyOp10
 70
     1
102
RTVSPropertyOp11
 70
     1
102
RTVSPropertyOp12
 70
     1
102
RTVSPropertyOp13
 70
     1
102
RTVSPropertyOp14
 70
     1
102
RTVSPropertyOp15
 70
     1
102
RTVSPropertyOp16
 70
     1
102
RTVSPropertyOp17
 70
     1
102
RTVSPropertyOp18
 70
     1
102
RTVSPropertyOp19
 70
     1
102
RTVSPropertyOp20
 70
     1
102
RTVSPropertyOp21
 70
     1
102
RTVSPropertyOp22
 70
     1
102
RTVSPropertyOp23
 70
     1
102
RTVSPropertyOp24
 70
     1
102
RTVSPropertyOp25
 70
     1
102
RTVSPropertyOp26
 70
     1
102
RTVSPropertyOp27
 70
     1
102
RTVSPropertyOp28
 70
     1
102
RTVSPropertyOp29
 70
     1
102
RTVSPropertyOp30
 70
     1
102
RTVSPropertyOp31
 70
     1
102
RTVSPropertyOp32
 70
     1
  0
XRECORD
  5
34D
102
{ACAD_REACTORS
330
34C
102
}
330
34C
100
AcDbXrecord
280
     1
102
RTVSPropertyOp0
 70
     1
102
RTVSPropertyOp1
 70
     1
102
RTVSPropertyOp2
 70
     1
102
RTVSPropertyOp3
 70
     1
102
RTVSPropertyOp4
 70
     1
102
RTVSPropertyOp5
 70
     1
102
RTVSPropertyOp6
 70
     1
102
RTVSPropertyOp7
 70
     1
102
RTVSPropertyOp8
 70
     1
102
RTVSPropertyOp9
 70
     1
102
RTVSPropertyOp10
 70
     1
102
RTVSPropertyOp11
 70
     1
102
RTVSPropertyOp12
 70
     1
102
RTVSPropertyOp13
 70
     1
102
RTVSPropertyOp14
 70
     1
102
RTVSPropertyOp15
 70
     1
102
RTVSPropertyOp16
 70
     1
102
RTVSPropertyOp17
 70
     1
102
RTVSPropertyOp18
 70
     1
102
RTVSPropertyOp19
 70
     1
102
RTVSPropertyOp20
 70
     1
102
RTVSPropertyOp21
 70
     1
102
RTVSPropertyOp22
 70
     1
102
RTVSPropertyOp23
 70
     1
102
RTVSPropertyOp24
 70
     1
102
RTVSPropertyOp25
 70
     1
102
RTVSPropertyOp26
 70
     1
102
RTVSPropertyOp27
 70
     1
102
RTVSPropertyOp28
 70
     1
102
RTVSPropertyOp29
 70
     1
102
RTVSPropertyOp30
 70
     1
102
RTVSPropertyOp31
 70
     1
102
RTVSPropertyOp32
 70
     1
  0
ENDSEC
  0
EOF
